  0
SECTION
  2
HEADER
  9
$ACADVER
  1
AC1015
  9
$ACADMAINTVER
 70
     6
  9
$DWGCODEPAGE
  3
ANSI_932
  9
$INSBASE
 10
0.0
 20
0.0
 30
0.0
  9
$EXTMIN
 10
0.0
 20
0.0
 30
0.0
  9
$EXTMAX
 10
297.0
 20
210.0
 30
0.0
  9
$LIMMIN
 10
0.0
 20
0.0
  9
$LIMMAX
 10
297.0
 20
210.0
  9
$ORTHOMODE
 70
     0
  9
$REGENMODE
 70
     1
  9
$FILLMODE
 70
     1
  9
$QTEXTMODE
 70
     0
  9
$MIRRTEXT
 70
     1
  9
$LTSCALE
 40
0.25
  9
$ATTMODE
 70
     1
  9
$TEXTSIZE
 40
5.0
  9
$TRACEWID
 40
0.05
  9
$TEXTSTYLE
  7
Standard
  9
$CLAYER
  8
0
  9
$CELTYPE
  6
ByLayer
  9
$CECOLOR
 62
   256
  9
$CELTSCALE
 40
1.0
  9
$DISPSILH
 70
     0
  9
$DIMSCALE
 40
1.0
  9
$DIMASZ
 40
4.0
  9
$DIMEXO
 40
2.0
  9
$DIMDLI
 40
10.0
  9
$DIMRND
 40
0.0
  9
$DIMDLE
 40
0.0
  9
$DIMEXE
 40
2.0
  9
$DIMTP
 40
0.0
  9
$DIMTM
 40
0.0
  9
$DIMTXT
 40
4.0
  9
$DIMCEN
 40
0.09
  9
$DIMTSZ
 40
0.0
  9
$DIMTOL
 70
     0
  9
$DIMLIM
 70
     0
  9
$DIMTIH
 70
     0
  9
$DIMTOH
 70
     0
  9
$DIMSE1
 70
     0
  9
$DIMSE2
 70
     0
  9
$DIMTAD
 70
     3
  9
$DIMZIN
 70
     8
  9
$DIMBLK
  1

  9
$DIMASO
 70
     1
  9
$DIMSHO
 70
     1
  9
$DIMPOST
  1

  9
$DIMAPOST
  1

  9
$DIMALT
 70
     0
  9
$DIMALTD
 70
     2
  9
$DIMALTF
 40
25.4
  9
$DIMLFAC
 40
1.0
  9
$DIMTOFL
 70
     1
  9
$DIMTVP
 40
0.7
  9
$DIMTIX
 70
     0
  9
$DIMSOXD
 70
     0
  9
$DIMSAH
 70
     0
  9
$DIMBLK1
  1

  9
$DIMBLK2
  1

  9
$DIMSTYLE
  2
Standard
  9
$DIMCLRD
 70
     0
  9
$DIMCLRE
 70
     0
  9
$DIMCLRT
 70
     0
  9
$DIMTFAC
 40
0.5
  9
$DIMGAP
 40
0.09
  9
$DIMJUST
 70
     0
  9
$DIMSD1
 70
     0
  9
$DIMSD2
 70
     0
  9
$DIMTOLJ
 70
     1
  9
$DIMTZIN
 70
     8
  9
$DIMALTZ
 70
     0
  9
$DIMALTTZ
 70
     0
  9
$DIMUPT
 70
     1
  9
$DIMDEC
 70
     2
  9
$DIMTDEC
 70
     4
  9
$DIMALTU
 70
     2
  9
$DIMALTTD
 70
     2
  9
$DIMTXSTY
  7
Standard
  9
$DIMAUNIT
 70
     0
  9
$DIMADEC
 70
     0
  9
$DIMALTRND
 40
0.0
  9
$DIMAZIN
 70
     0
  9
$DIMDSEP
 70
    46
  9
$DIMATFIT
 70
     2
  9
$DIMFRAC
 70
     0
  9
$DIMLDRBLK
  1

  9
$DIMLUNIT
 70
     2
  9
$DIMLWD
 70
    -2
  9
$DIMLWE
 70
    -2
  9
$DIMTMOVE
 70
     2
  9
$LUNITS
 70
     2
  9
$LUPREC
 70
     4
  9
$SKETCHINC
 40
0.1
  9
$FILLETRAD
 40
0.5
  9
$AUNITS
 70
     0
  9
$AUPREC
 70
     0
  9
$MENU
  1
.
  9
$ELEVATION
 40
0.0
  9
$PELEVATION
 40
0.0
  9
$THICKNESS
 40
0.0
  9
$LIMCHECK
 70
     0
  9
$CHAMFERA
 40
0.5
  9
$CHAMFERB
 40
0.5
  9
$CHAMFERC
 40
1.0
  9
$CHAMFERD
 40
0.0
  9
$SKPOLY
 70
     0
  9
$TDCREATE
 40
2454578.977951389
  9
$TDUCREATE
 40
2454578.602951389
  9
$TDUPDATE
 40
2454578.977951389
  9
$TDUUPDATE
 40
2454578.602951389
  9
$TDINDWG
 40
0.0000000116
  9
$TDUSRTIMER
 40
0.0000000116
  9
$USRTIMER
 70
     1
  9
$ANGBASE
 50
0.0
  9
$ANGDIR
 70
     0
  9
$PDMODE
 70
     0
  9
$PDSIZE
 40
0.0
  9
$PLINEWID
 40
0.0
  9
$SPLFRAME
 70
     0
  9
$SPLINETYPE
 70
     6
  9
$SPLINESEGS
 70
     8
  9
$HANDSEED
  5
466
  9
$SURFTAB1
 70
     6
  9
$SURFTAB2
 70
     6
  9
$SURFTYPE
 70
     6
  9
$SURFU
 70
     6
  9
$SURFV
 70
     6
  9
$UCSBASE
  2

  9
$UCSNAME
  2

  9
$UCSORG
 10
0.0
 20
0.0
 30
0.0
  9
$UCSXDIR
 10
1.0
 20
0.0
 30
0.0
  9
$UCSYDIR
 10
0.0
 20
1.0
 30
0.0
  9
$UCSORTHOREF
  2

  9
$UCSORTHOVIEW
 70
     0
  9
$UCSORGTOP
 10
0.0
 20
0.0
 30
0.0
  9
$UCSORGBOTTOM
 10
0.0
 20
0.0
 30
0.0
  9
$UCSORGLEFT
 10
0.0
 20
0.0
 30
0.0
  9
$UCSORGRIGHT
 10
0.0
 20
0.0
 30
0.0
  9
$UCSORGFRONT
 10
0.0
 20
0.0
 30
0.0
  9
$UCSORGBACK
 10
0.0
 20
0.0
 30
0.0
  9
$PUCSBASE
  2

  9
$PUCSNAME
  2

  9
$PUCSORG
 10
0.0
 20
0.0
 30
0.0
  9
$PUCSXDIR
 10
1.0
 20
0.0
 30
0.0
  9
$PUCSYDIR
 10
0.0
 20
1.0
 30
0.0
  9
$PUCSORTHOREF
  2

  9
$PUCSORTHOVIEW
 70
     0
  9
$PUCSORGTOP
 10
0.0
 20
0.0
 30
0.0
  9
$PUCSORGBOTTOM
 10
0.0
 20
0.0
 30
0.0
  9
$PUCSORGLEFT
 10
0.0
 20
0.0
 30
0.0
  9
$PUCSORGRIGHT
 10
0.0
 20
0.0
 30
0.0
  9
$PUCSORGFRONT
 10
0.0
 20
0.0
 30
0.0
  9
$PUCSORGBACK
 10
0.0
 20
0.0
 30
0.0
  9
$USERI1
 70
     0
  9
$USERI2
 70
     0
  9
$USERI3
 70
     0
  9
$USERI4
 70
     0
  9
$USERI5
 70
     0
  9
$USERR1
 40
0.0
  9
$USERR2
 40
0.0
  9
$USERR3
 40
0.0
  9
$USERR4
 40
0.0
  9
$USERR5
 40
0.0
  9
$WORLDVIEW
 70
     1
  9
$SHADEDGE
 70
     3
  9
$SHADEDIF
 70
    70
  9
$TILEMODE
 70
     1
  9
$MAXACTVP
 70
    64
  9
$PINSBASE
 10
0.0
 20
0.0
 30
0.0
  9
$PLIMCHECK
 70
     0
  9
$PEXTMIN
 10
0.0
 20
0.0
 30
0.0
  9
$PEXTMAX
 10
297.0
 20
210.0
 30
0.0
  9
$PLIMMIN
 10
0.0
 20
0.0
  9
$PLIMMAX
 10
297.0
 20
210.0
  9
$UNITMODE
 70
     0
  9
$VISRETAIN
 70
     1
  9
$PLINEGEN
 70
     0
  9
$PSLTSCALE
 70
     1
  9
$TREEDEPTH
 70
  3020
  9
$CMLSTYLE
  2
Standard
  9
$CMLJUST
 70
     0
  9
$CMLSCALE
 40
1.0
  9
$PROXYGRAPHICS
 70
     1
  9
$MEASUREMENT
 70
     1
  9
$CELWEIGHT
370
    -1
  9
$ENDCAPS
280
     0
  9
$JOINSTYLE
280
     0
  9
$LWDISPLAY
290
     0
  9
$INSUNITS
 70
     4
  9
$HYPERLINKBASE
  1

  9
$STYLESHEET
  1

  9
$XEDIT
290
     1
  9
$CEPSNTYPE
380
     0
  9
$PSTYLEMODE
290
     1
  9
$FINGERPRINTGUID
  2
{3094C2F8-66A8-46CF-AFCB-557A19AFC85B}
  9
$VERSIONGUID
  2
{FAEB1C32-E019-11D5-929B-00C0DF256EC4}
  9
$EXTNAMES
290
     1
  9
$PSVPSCALE
 40
0.0
  9
$OLESTARTUP
290
     0
  0
ENDSEC
  0
SECTION
  2
CLASSES
  0
CLASS
  1
ACDBDICTIONARYWDFLT
  2
AcDbDictionaryWithDefault
  3
ObjectDBX Classes
 90
        0
280
     0
281
     0
  0
CLASS
  1
DICTIONARYVAR
  2
AcDbDictionaryVar
  3
ObjectDBX Classes
 90
        0
280
     0
281
     0
  0
CLASS
  1
ACDBPLACEHOLDER
  2
AcDbPlaceHolder
  3
ObjectDBX Classes
 90
        0
280
     0
281
     0
  0
CLASS
  1
LAYOUT
  2
AcDbLayout
  3
ObjectDBX Classes
 90
        0
280
     0
281
     0
  0
ENDSEC
  0
SECTION
  2
TABLES
  0
TABLE
  2
VPORT
  5
8
330
0
100
AcDbSymbolTable
 70
     1
  0
VPORT
  5
29
330
8
100
AcDbSymbolTableRecord
100
AcDbViewportTableRecord
  2
*Active
 70
     0
 10
0.0
 20
0.0
 11
1.0
 21
1.0
 12
10.42990654205607
 22
4.5
 13
0.0
 23
0.0
 14
0.5
 24
0.5
 15
0.5
 25
0.5
 16
0.0
 26
0.0
 36
1.0
 17
0.0
 27
0.0
 37
0.0
 40
9.0
 41
1.972972972850329
 42
50.0
 43
0.0
 44
0.0
 50
0.0
 51
0.0
 71
     0
 72
   100
 73
     1
 74
     3
 75
     0
 76
     0
 77
     0
 78
     0
281
     0
 65
     1
110
0.0
120
0.0
130
0.0
111
1.0
121
0.0
131
0.0
112
0.0
122
1.0
132
0.0
 79
     0
146
0.0
  0
ENDTAB
  0
TABLE
  2
LTYPE
  5
5
330
0
100
AcDbSymbolTable
 70
     9
  0
LTYPE
  5
14
330
5
100
AcDbSymbolTableRecord
100
AcDbLinetypeTableRecord
  2
ByBlock
 70
     0
  3

 72
    65
 73
     0
 40
0.0
  0
LTYPE
  5
15
330
5
100
AcDbSymbolTableRecord
100
AcDbLinetypeTableRecord
  2
ByLayer
 70
     0
  3

 72
    65
 73
     0
 40
0.0
  0
LTYPE
  5
16
330
5
100
AcDbSymbolTableRecord
100
AcDbLinetypeTableRecord
  2
Continuous
 70
     0
  3
Solid line
 72
    65
 73
     0
 40
0.0
  0
LTYPE
  5
68
330
5
100
AcDbSymbolTableRecord
100
AcDbLinetypeTableRecord
  2
DOT
 70
     0
  3
DOT
 72
    65
 73
     2
 40
4.0
 49
6.0
 74
     0
 49
-2.0
 74
     0
  0
LTYPE
  5
69
330
5
100
AcDbSymbolTableRecord
100
AcDbLinetypeTableRecord
  2
HIDDEN
 70
     0
  3
HIDDEN
 72
    65
 73
     2
 40
4.2
 49
8.4
 74
     0
 49
-4.2
 74
     0
  0
LTYPE
  5
6A
330
5
100
AcDbSymbolTableRecord
100
AcDbLinetypeTableRecord
  2
DASHDOT
 70
     0
  3
DASHDOT
 72
    65
 73
     4
 40
14.5
 49
30.0
 74
     0
 49
-9.0
 74
     0
 49
2.5
 74
     0
 49
-9.0
 74
     0
  0
LTYPE
  5
6B
330
5
100
AcDbSymbolTableRecord
100
AcDbLinetypeTableRecord
  2
PHANTOM
 70
     0
  3
PHANTOM
 72
    65
 73
     6
 40
12.0
 49
30.0
 74
     0
 49
-9.0
 74
     0
 49
2.5
 74
     0
 49
-5.0
 74
     0
 49
2.5
 74
     0
 49
-9.0
 74
     0
  0
LTYPE
  5
6C
330
5
100
AcDbSymbolTableRecord
100
AcDbLinetypeTableRecord
  2
ACAD_ISO14W100
 70
     0
  3
ACAD_ISO14W100
 72
    65
 73
     8
 40
1.5
 49
12.0
 74
     0
 49
-3.0
 74
     0
 49
0.5
 74
     0
 49
-3.0
 74
     0
 49
0.5
 74
     0
 49
-3.0
 74
     0
 49
0.5
 74
     0
 49
-3.0
 74
     0
  0
LTYPE
  5
6D
330
5
100
AcDbSymbolTableRecord
100
AcDbLinetypeTableRecord
  2
ACAD_ISO06W100
 70
     0
  3
ACAD_ISO06W100
 72
    65
 73
     8
 40
13.5
 49
24.0
 74
     0
 49
-3.0
 74
     0
 49
0.5
 74
     0
 49
-3.0
 74
     0
 49
0.5
 74
     0
 49
-3.0
 74
     0
 49
0.5
 74
     0
 49
-3.0
 74
     0
  0
LTYPE
  5
6E
330
5
100
AcDbSymbolTableRecord
100
AcDbLinetypeTableRecord
  2
ACAD_ISO11W100
 70
     0
  3
ACAD_ISO11W100
 72
    65
 73
     6
 40
15.5
 49
12.0
 74
     0
 49
-3.0
 74
     0
 49
12.0
 74
     0
 49
-3.0
 74
     0
 49
0.5
 74
     0
 49
-3.0
 74
     0
  0
LTYPE
  5
6F
330
5
100
AcDbSymbolTableRecord
100
AcDbLinetypeTableRecord
  2
ACAD_ISO13W100
 70
     0
  3
ACAD_ISO13W100
 72
    65
 73
     8
 40
13.0
 49
12.0
 74
     0
 49
-3.0
 74
     0
 49
12.0
 74
     0
 49
-3.0
 74
     0
 49
0.5
 74
     0
 49
-3.0
 74
     0
 49
0.5
 74
     0
 49
-3.0
 74
     0
  0
ENDTAB
  0
TABLE
  2
LAYER
  5
2
330
0
100
AcDbSymbolTable
 70
    23
  0
LAYER
  5
10
330
2
100
AcDbSymbolTableRecord
100
AcDbLayerTableRecord
  2
0
 70
     0
 62
     7
  6
Continuous
370
    -3
390
F
  0
LAYER
  5
70
330
2
100
AcDbSymbolTableRecord
100
AcDbLayerTableRecord
  2
1
 70
     0
 62
     7
  6
Continuous
370
    -3
390
F
  0
LAYER
  5
71
330
2
100
AcDbSymbolTableRecord
100
AcDbLayerTableRecord
  2
2
 70
     0
 62
     5
  6
Continuous
370
    -3
390
F
  0
LAYER
  5
72
330
2
100
AcDbSymbolTableRecord
100
AcDbLayerTableRecord
  2
3
 70
     0
 62
    14
  6
Continuous
370
    -3
390
F
  0
LAYER
  5
73
330
2
100
AcDbSymbolTableRecord
100
AcDbLayerTableRecord
  2
4
 70
     0
 62
    54
  6
Continuous
370
    -3
390
F
  0
LAYER
  5
74
330
2
100
AcDbSymbolTableRecord
100
AcDbLayerTableRecord
  2
5
 70
     0
 62
   174
  6
Continuous
370
    -3
390
F
  0
LAYER
  5
75
330
2
100
AcDbSymbolTableRecord
100
AcDbLayerTableRecord
  2
6
 70
     0
 62
    94
  6
Continuous
370
    -3
390
F
  0
LAYER
  5
76
330
2
100
AcDbSymbolTableRecord
100
AcDbLayerTableRecord
  2
7
 70
     0
 62
    14
  6
Continuous
370
    -3
390
F
  0
LAYER
  5
77
330
2
100
AcDbSymbolTableRecord
100
AcDbLayerTableRecord
  2
8
 70
     0
 62
   214
  6
Continuous
370
    -3
390
F
  0
LAYER
  5
78
330
2
100
AcDbSymbolTableRecord
100
AcDbLayerTableRecord
  2
9
 70
     0
 62
    14
  6
Continuous
370
    -3
390
F
  0
LAYER
  5
79
330
2
100
AcDbSymbolTableRecord
100
AcDbLayerTableRecord
  2
10
 70
     0
 62
     3
  6
Continuous
370
    -3
390
F
  0
LAYER
  5
7A
330
2
100
AcDbSymbolTableRecord
100
AcDbLayerTableRecord
  2
11
 70
     0
 62
   251
  6
Continuous
370
    -3
390
F
  0
LAYER
  5
7B
330
2
100
AcDbSymbolTableRecord
100
AcDbLayerTableRecord
  2
12
 70
     0
 62
   136
  6
Continuous
370
    -3
390
F
  0
LAYER
  5
7C
330
2
100
AcDbSymbolTableRecord
100
AcDbLayerTableRecord
  2
13
 70
     0
 62
   216
  6
Continuous
370
    -3
390
F
  0
LAYER
  5
7D
330
2
100
AcDbSymbolTableRecord
100
AcDbLayerTableRecord
  2
14
 70
     0
 62
    56
  6
Continuous
370
    -3
390
F
  0
LAYER
  5
7E
330
2
100
AcDbSymbolTableRecord
100
AcDbLayerTableRecord
  2
15
 70
     0
 62
    96
  6
Continuous
370
    -3
390
F
  0
LAYER
  5
7F
330
2
100
AcDbSymbolTableRecord
100
AcDbLayerTableRecord
  2
16
 70
     0
 62
    16
  6
Continuous
370
    -3
390
F
  0
LAYER
  5
80
330
2
100
AcDbSymbolTableRecord
100
AcDbLayerTableRecord
  2
17
 70
     0
 62
   132
  6
Continuous
370
    -3
390
F
  0
LAYER
  5
81
330
2
100
AcDbSymbolTableRecord
100
AcDbLayerTableRecord
  2
18
 70
     0
 62
   212
  6
Continuous
370
    -3
390
F
  0
LAYER
  5
82
330
2
100
AcDbSymbolTableRecord
100
AcDbLayerTableRecord
  2
19
 70
     0
 62
    52
  6
Continuous
370
    -3
390
F
  0
LAYER
  5
83
330
2
100
AcDbSymbolTableRecord
100
AcDbLayerTableRecord
  2
20
 70
     0
 62
   250
  6
Continuous
370
    -3
390
F
  0
LAYER
  5
84
330
2
100
AcDbSymbolTableRecord
100
AcDbLayerTableRecord
  2
101
 70
     0
 62
     3
  6
Continuous
370
    -3
390
F
  0
LAYER
  5
85
330
2
100
AcDbSymbolTableRecord
100
AcDbLayerTableRecord
  2
128
 70
     0
 62
     7
  6
Continuous
370
    -3
390
F
  0
ENDTAB
  0
TABLE
  2
STYLE
  5
3
330
0
100
AcDbSymbolTable
 70
     2
  0
STYLE
  5
11
330
3
100
AcDbSymbolTableRecord
100
AcDbTextStyleTableRecord
  2
Standard
 70
     0
 40
0.0
 41
1.0
 50
0.0
 71
     0
 42
0.2
  3
txt
  4
bigfont
  0
STYLE
  5
2C
330
3
100
AcDbSymbolTableRecord
100
AcDbTextStyleTableRecord
  2
T_STANDARD
 70
     4
 40
10.0
 41
1.0
 50
0.0
 71
     0
 42
10.0
  3
txt
  4
bigfont
  0
ENDTAB
  0
TABLE
  2
VIEW
  5
6
330
0
100
AcDbSymbolTable
 70
     0
  0
ENDTAB
  0
TABLE
  2
UCS
  5
7
330
0
100
AcDbSymbolTable
 70
     0
  0
ENDTAB
  0
TABLE
  2
APPID
  5
9
330
0
100
AcDbSymbolTable
 70
     2
  0
APPID
  5
12
330
9
100
AcDbSymbolTableRecord
100
AcDbRegAppTableRecord
  2
ACAD
 70
     0
  0
APPID
  5
2B
330
9
100
AcDbSymbolTableRecord
100
AcDbRegAppTableRecord
  2
ODA
 70
     0
  0
ENDTAB
  0
TABLE
  2
DIMSTYLE
  5
A
330
0
100
AcDbSymbolTable
 70
     1
100
AcDbDimStyleTable
  0
DIMSTYLE
105
27
102
{ACAD_REACTORS
330
260
330
273
330
28D
330
2A0
330
2B6
330
2CA
330
2DE
330
302
330
316
330
32A
330
33E
330
351
330
364
330
378
330
3CF
102
}
330
A
100
AcDbSymbolTableRecord
100
AcDbDimStyleTableRecord
  2
Standard
 70
     0
340
11
  0
ENDTAB
  0
TABLE
  2
BLOCK_RECORD
  5
1
330
0
100
AcDbSymbolTable
 70
    68
  0
BLOCK_RECORD
  5
1F
330
1
100
AcDbSymbolTableRecord
100
AcDbBlockTableRecord
  2
*Model_Space
340
22
  0
BLOCK_RECORD
  5
1B
330
1
100
AcDbSymbolTableRecord
100
AcDbBlockTableRecord
  2
*Paper_Space
340
1E
  0
BLOCK_RECORD
  5
23
330
1
100
AcDbSymbolTableRecord
100
AcDbBlockTableRecord
  2
*Paper_Space0
340
26
  0
BLOCK_RECORD
  5
2D
330
1
100
AcDbSymbolTableRecord
100
AcDbBlockTableRecord
  2
_ORIGIN
340
0
  0
BLOCK_RECORD
  5
32
330
1
100
AcDbSymbolTableRecord
100
AcDbBlockTableRecord
  2
_DOTBLANK
340
0
  0
BLOCK_RECORD
  5
37
330
1
100
AcDbSymbolTableRecord
100
AcDbBlockTableRecord
  2
_DOT
340
0
  0
BLOCK_RECORD
  5
3C
330
1
100
AcDbSymbolTableRecord
100
AcDbBlockTableRecord
  2
_OPEN
340
0
  0
BLOCK_RECORD
  5
42
330
1
100
AcDbSymbolTableRecord
100
AcDbBlockTableRecord
  2
_CLOSED
340
0
  0
BLOCK_RECORD
  5
49
330
1
100
AcDbSymbolTableRecord
100
AcDbBlockTableRecord
  2
_CLOSEDBLANK
340
0
  0
BLOCK_RECORD
  5
4F
330
1
100
AcDbSymbolTableRecord
100
AcDbBlockTableRecord
  2
_BOXBLANK
340
0
  0
BLOCK_RECORD
  5
57
330
1
100
AcDbSymbolTableRecord
100
AcDbBlockTableRecord
  2
_BOXFILLED
340
0
  0
BLOCK_RECORD
  5
5C
330
1
100
AcDbSymbolTableRecord
100
AcDbBlockTableRecord
  2
_INTEGRAL
340
0
  0
BLOCK_RECORD
  5
61
330
1
100
AcDbSymbolTableRecord
100
AcDbBlockTableRecord
  2
_OBLIQUE
340
0
  0
BLOCK_RECORD
  5
65
330
1
100
AcDbSymbolTableRecord
100
AcDbBlockTableRecord
  2
_NONE
340
0
  0
BLOCK_RECORD
  5
86
330
1
100
AcDbSymbolTableRecord
100
AcDbBlockTableRecord
  2
*G12
340
0
102
{BLKREFS
331
92
102
}
  0
BLOCK_RECORD
  5
9F
330
1
100
AcDbSymbolTableRecord
100
AcDbBlockTableRecord
  2
*G13
340
0
102
{BLKREFS
331
AC
102
}
  0
BLOCK_RECORD
  5
A2
330
1
100
AcDbSymbolTableRecord
100
AcDbBlockTableRecord
  2
*G14
340
0
102
{BLKREFS
331
AA
102
}
  0
BLOCK_RECORD
  5
AD
330
1
100
AcDbSymbolTableRecord
100
AcDbBlockTableRecord
  2
*G15
340
0
102
{BLKREFS
331
BA
102
}
  0
BLOCK_RECORD
  5
B0
330
1
100
AcDbSymbolTableRecord
100
AcDbBlockTableRecord
  2
*G16
340
0
102
{BLKREFS
331
B8
102
}
  0
BLOCK_RECORD
  5
C1
330
1
100
AcDbSymbolTableRecord
100
AcDbBlockTableRecord
  2
*G17
340
0
102
{BLKREFS
331
CA
102
}
  0
BLOCK_RECORD
  5
CB
330
1
100
AcDbSymbolTableRecord
100
AcDbBlockTableRecord
  2
*G18
340
0
102
{BLKREFS
331
D4
102
}
  0
BLOCK_RECORD
  5
D5
330
1
100
AcDbSymbolTableRecord
100
AcDbBlockTableRecord
  2
*G19
340
0
102
{BLKREFS
331
DE
102
}
  0
BLOCK_RECORD
  5
DF
330
1
100
AcDbSymbolTableRecord
100
AcDbBlockTableRecord
  2
*G20
340
0
102
{BLKREFS
331
E8
102
}
  0
BLOCK_RECORD
  5
E9
330
1
100
AcDbSymbolTableRecord
100
AcDbBlockTableRecord
  2
*G21
340
0
102
{BLKREFS
331
F0
102
}
  0
BLOCK_RECORD
  5
F1
330
1
100
AcDbSymbolTableRecord
100
AcDbBlockTableRecord
  2
*G22
340
0
102
{BLKREFS
331
F8
102
}
  0
BLOCK_RECORD
  5
F9
330
1
100
AcDbSymbolTableRecord
100
AcDbBlockTableRecord
  2
*G23
340
0
102
{BLKREFS
331
100
102
}
  0
BLOCK_RECORD
  5
101
330
1
100
AcDbSymbolTableRecord
100
AcDbBlockTableRecord
  2
*G24
340
0
102
{BLKREFS
331
108
102
}
  0
BLOCK_RECORD
  5
109
330
1
100
AcDbSymbolTableRecord
100
AcDbBlockTableRecord
  2
*G25
340
0
102
{BLKREFS
331
110
102
}
  0
BLOCK_RECORD
  5
111
330
1
100
AcDbSymbolTableRecord
100
AcDbBlockTableRecord
  2
*G26
340
0
102
{BLKREFS
331
118
102
}
  0
BLOCK_RECORD
  5
119
330
1
100
AcDbSymbolTableRecord
100
AcDbBlockTableRecord
  2
*G27
340
0
102
{BLKREFS
331
120
102
}
  0
BLOCK_RECORD
  5
121
330
1
100
AcDbSymbolTableRecord
100
AcDbBlockTableRecord
  2
*G28
340
0
102
{BLKREFS
331
128
102
}
  0
BLOCK_RECORD
  5
129
330
1
100
AcDbSymbolTableRecord
100
AcDbBlockTableRecord
  2
*G29
340
0
102
{BLKREFS
331
130
102
}
  0
BLOCK_RECORD
  5
14A
330
1
100
AcDbSymbolTableRecord
100
AcDbBlockTableRecord
  2
*G30
340
0
102
{BLKREFS
331
151
102
}
  0
BLOCK_RECORD
  5
152
330
1
100
AcDbSymbolTableRecord
100
AcDbBlockTableRecord
  2
*G31
340
0
102
{BLKREFS
331
159
102
}
  0
BLOCK_RECORD
  5
15A
330
1
100
AcDbSymbolTableRecord
100
AcDbBlockTableRecord
  2
*G32
340
0
102
{BLKREFS
331
161
102
}
  0
BLOCK_RECORD
  5
162
330
1
100
AcDbSymbolTableRecord
100
AcDbBlockTableRecord
  2
*G33
340
0
102
{BLKREFS
331
169
102
}
  0
BLOCK_RECORD
  5
16A
330
1
100
AcDbSymbolTableRecord
100
AcDbBlockTableRecord
  2
*G34
340
0
102
{BLKREFS
331
171
102
}
  0
BLOCK_RECORD
  5
172
330
1
100
AcDbSymbolTableRecord
100
AcDbBlockTableRecord
  2
*G35
340
0
102
{BLKREFS
331
179
102
}
  0
BLOCK_RECORD
  5
17B
330
1
100
AcDbSymbolTableRecord
100
AcDbBlockTableRecord
  2
*G36
340
0
102
{BLKREFS
331
182
102
}
  0
BLOCK_RECORD
  5
183
330
1
100
AcDbSymbolTableRecord
100
AcDbBlockTableRecord
  2
*G37
340
0
102
{BLKREFS
331
18A
102
}
  0
BLOCK_RECORD
  5
1AE
330
1
100
AcDbSymbolTableRecord
100
AcDbBlockTableRecord
  2
*G38
340
0
102
{BLKREFS
331
1B3
102
}
  0
BLOCK_RECORD
  5
1CB
330
1
100
AcDbSymbolTableRecord
100
AcDbBlockTableRecord
  2
*G39
340
0
102
{BLKREFS
331
1D2
102
}
  0
BLOCK_RECORD
  5
1D3
330
1
100
AcDbSymbolTableRecord
100
AcDbBlockTableRecord
  2
*G40
340
0
102
{BLKREFS
331
1DA
102
}
  0
BLOCK_RECORD
  5
1DB
330
1
100
AcDbSymbolTableRecord
100
AcDbBlockTableRecord
  2
*G41
340
0
102
{BLKREFS
331
1E2
102
}
  0
BLOCK_RECORD
  5
1F8
330
1
100
AcDbSymbolTableRecord
100
AcDbBlockTableRecord
  2
*G42
340
0
102
{BLKREFS
331
1FF
102
}
  0
BLOCK_RECORD
  5
20C
330
1
100
AcDbSymbolTableRecord
100
AcDbBlockTableRecord
  2
*G43
340
0
102
{BLKREFS
331
213
102
}
  0
BLOCK_RECORD
  5
214
330
1
100
AcDbSymbolTableRecord
100
AcDbBlockTableRecord
  2
*G44
340
0
102
{BLKREFS
331
21B
102
}
  0
BLOCK_RECORD
  5
224
330
1
100
AcDbSymbolTableRecord
100
AcDbBlockTableRecord
  2
*G45
340
0
102
{BLKREFS
331
22F
102
}
  0
BLOCK_RECORD
  5
24D
330
1
100
AcDbSymbolTableRecord
100
AcDbBlockTableRecord
  2
Dim1
340
0
  0
BLOCK_RECORD
  5
261
330
1
100
AcDbSymbolTableRecord
100
AcDbBlockTableRecord
  2
Dim2
340
0
  0
BLOCK_RECORD
  5
274
330
1
100
AcDbSymbolTableRecord
100
AcDbBlockTableRecord
  2
Dim3
340
0
  0
BLOCK_RECORD
  5
28E
330
1
100
AcDbSymbolTableRecord
100
AcDbBlockTableRecord
  2
Dim4
340
0
  0
BLOCK_RECORD
  5
2A3
330
1
100
AcDbSymbolTableRecord
100
AcDbBlockTableRecord
  2
Dim5
340
0
  0
BLOCK_RECORD
  5
2B7
330
1
100
AcDbSymbolTableRecord
100
AcDbBlockTableRecord
  2
Dim6
340
0
  0
BLOCK_RECORD
  5
2CB
330
1
100
AcDbSymbolTableRecord
100
AcDbBlockTableRecord
  2
Dim7
340
0
  0
BLOCK_RECORD
  5
2DF
330
1
100
AcDbSymbolTableRecord
100
AcDbBlockTableRecord
  2
Dim8
340
0
102
{BLKREFS
331
2EE
102
}
  0
BLOCK_RECORD
  5
2EF
330
1
100
AcDbSymbolTableRecord
100
AcDbBlockTableRecord
  2
Dim9
340
0
  0
BLOCK_RECORD
  5
303
330
1
100
AcDbSymbolTableRecord
100
AcDbBlockTableRecord
  2
Dim10
340
0
  0
BLOCK_RECORD
  5
317
330
1
100
AcDbSymbolTableRecord
100
AcDbBlockTableRecord
  2
Dim11
340
0
  0
BLOCK_RECORD
  5
32B
330
1
100
AcDbSymbolTableRecord
100
AcDbBlockTableRecord
  2
Dim12
340
0
  0
BLOCK_RECORD
  5
33F
330
1
100
AcDbSymbolTableRecord
100
AcDbBlockTableRecord
  2
Dim13
340
0
  0
BLOCK_RECORD
  5
352
330
1
100
AcDbSymbolTableRecord
100
AcDbBlockTableRecord
  2
Dim14
340
0
  0
BLOCK_RECORD
  5
365
330
1
100
AcDbSymbolTableRecord
100
AcDbBlockTableRecord
  2
Dim15
340
0
  0
BLOCK_RECORD
  5
379
330
1
100
AcDbSymbolTableRecord
100
AcDbBlockTableRecord
  2
Dim16
340
0
102
{BLKREFS
331
393
102
}
  0
BLOCK_RECORD
  5
394
330
1
100
AcDbSymbolTableRecord
100
AcDbBlockTableRecord
  2
Dim17
340
0
102
{BLKREFS
331
3A6
102
}
  0
BLOCK_RECORD
  5
3A7
330
1
100
AcDbSymbolTableRecord
100
AcDbBlockTableRecord
  2
Dim18
340
0
102
{BLKREFS
331
3B9
102
}
  0
BLOCK_RECORD
  5
3BC
330
1
100
AcDbSymbolTableRecord
100
AcDbBlockTableRecord
  2
Dim19
340
0
  0
BLOCK_RECORD
  5
3D0
330
1
100
AcDbSymbolTableRecord
100
AcDbBlockTableRecord
  2
*G65
340
0
102
{BLKREFS
331
3D7
102
}
  0
BLOCK_RECORD
  5
3E5
330
1
100
AcDbSymbolTableRecord
100
AcDbBlockTableRecord
  2
*G66
340
0
102
{BLKREFS
331
3EC
102
}
  0
BLOCK_RECORD
  5
45A
330
1
100
AcDbSymbolTableRecord
100
AcDbBlockTableRecord
  2
*G67
340
0
102
{BLKREFS
331
461
102
}
  0
ENDTAB
  0
ENDSEC
  0
SECTION
  2
BLOCKS
  0
BLOCK
  5
20
330
1F
100
AcDbEntity
  8
0
100
AcDbBlockBegin
  2
*Model_Space
 70
     0
 71
     0
 10
0.0
 20
0.0
 30
0.0
  3
*Model_Space
  1

  0
ENDBLK
  5
21
330
1F
100
AcDbEntity
  8
0
100
AcDbBlockEnd
  0
BLOCK
  5
1C
330
1B
100
AcDbEntity
 67
     1
  8
0
100
AcDbBlockBegin
  2
*Paper_Space
 70
     0
 71
     0
 10
0.0
 20
0.0
 30
0.0
  3
*Paper_Space
  1

  0
ENDBLK
  5
1D
330
1B
100
AcDbEntity
 67
     1
  8
0
100
AcDbBlockEnd
  0
BLOCK
  5
24
330
23
100
AcDbEntity
  8
0
100
AcDbBlockBegin
  2
*Paper_Space0
 70
     0
 71
     0
 10
0.0
 20
0.0
 30
0.0
  3
*Paper_Space0
  1

  0
ENDBLK
  5
25
330
23
100
AcDbEntity
  8
0
100
AcDbBlockEnd
  0
BLOCK
  5
30
330
2D
100
AcDbEntity
  8
0
100
AcDbBlockBegin
  2
_ORIGIN
 70
     0
 71
     0
 10
0.0
 20
0.0
 30
0.0
  3
_ORIGIN
  1

  0
CIRCLE
  5
2E
330
2D
100
AcDbEntity
  8
0
100
AcDbCircle
 10
0.0
 20
0.0
 30
0.0
 40
0.5
  0
LINE
  5
2F
330
2D
100
AcDbEntity
  8
0
100
AcDbLine
 10
0.0
 20
0.0
 30
0.0
 11
-1.0
 21
0.0
 31
0.0
  0
ENDBLK
  5
31
330
2D
100
AcDbEntity
  8
0
100
AcDbBlockEnd
  0
BLOCK
  5
35
330
32
100
AcDbEntity
  8
0
100
AcDbBlockBegin
  2
_DOTBLANK
 70
     0
 71
     0
 10
0.0
 20
0.0
 30
0.0
  3
_DOTBLANK
  1

  0
CIRCLE
  5
33
330
32
100
AcDbEntity
  8
0
100
AcDbCircle
 10
0.0
 20
0.0
 30
0.0
 40
0.5
  0
LINE
  5
34
330
32
100
AcDbEntity
  8
0
100
AcDbLine
 10
-0.5
 20
0.0
 30
0.0
 11
-1.0
 21
0.0
 31
0.0
  0
ENDBLK
  5
36
330
32
100
AcDbEntity
  8
0
100
AcDbBlockEnd
  0
BLOCK
  5
3A
330
37
100
AcDbEntity
  8
0
100
AcDbBlockBegin
  2
_DOT
 70
     0
 71
     0
 10
0.0
 20
0.0
 30
0.0
  3
_DOT
  1

  0
LWPOLYLINE
  5
38
330
37
100
AcDbEntity
  8
0
100
AcDbPolyline
 90
        2
 70
     1
 43
0.5
 10
-0.25
 20
0.0
 42
1.0
 10
0.25
 20
0.0
 42
1.0
  0
LINE
  5
39
330
37
100
AcDbEntity
  8
0
100
AcDbLine
 10
-0.5
 20
0.0
 30
0.0
 11
-1.0
 21
0.0
 31
0.0
  0
ENDBLK
  5
3B
330
37
100
AcDbEntity
  8
0
100
AcDbBlockEnd
  0
BLOCK
  5
40
330
3C
100
AcDbEntity
  8
0
100
AcDbBlockBegin
  2
_OPEN
 70
     0
 71
     0
 10
0.0
 20
0.0
 30
0.0
  3
_OPEN
  1

  0
LINE
  5
3D
330
3C
100
AcDbEntity
  8
0
100
AcDbLine
 10
-1.0
 20
0.1666666666666667
 30
0.0
 11
0.0
 21
0.0
 31
0.0
  0
LINE
  5
3E
330
3C
100
AcDbEntity
  8
0
100
AcDbLine
 10
-1.0
 20
-0.1666666666666667
 30
0.0
 11
0.0
 21
0.0
 31
0.0
  0
LINE
  5
3F
330
3C
100
AcDbEntity
  8
0
100
AcDbLine
 10
0.0
 20
0.0
 30
0.0
 11
-1.0
 21
0.0
 31
0.0
  0
ENDBLK
  5
41
330
3C
100
AcDbEntity
  8
0
100
AcDbBlockEnd
  0
BLOCK
  5
47
330
42
100
AcDbEntity
  8
0
100
AcDbBlockBegin
  2
_CLOSED
 70
     0
 71
     0
 10
0.0
 20
0.0
 30
0.0
  3
_CLOSED
  1

  0
LINE
  5
43
330
42
100
AcDbEntity
  8
0
100
AcDbLine
 10
-1.0
 20
0.1666666666666667
 30
0.0
 11
0.0
 21
0.0
 31
0.0
  0
LINE
  5
44
330
42
100
AcDbEntity
  8
0
100
AcDbLine
 10
0.0
 20
0.0
 30
0.0
 11
-1.0
 21
-0.1666666666666667
 31
0.0
  0
LINE
  5
45
330
42
100
AcDbEntity
  8
0
100
AcDbLine
 10
-1.0
 20
0.1666666666666667
 30
0.0
 11
-1.0
 21
-0.1666666666666667
 31
0.0
  0
LINE
  5
46
330
42
100
AcDbEntity
  8
0
100
AcDbLine
 10
0.0
 20
0.0
 30
0.0
 11
-1.0
 21
0.0
 31
0.0
  0
ENDBLK
  5
48
330
42
100
AcDbEntity
  8
0
100
AcDbBlockEnd
  0
BLOCK
  5
4D
330
49
100
AcDbEntity
  8
0
100
AcDbBlockBegin
  2
_CLOSEDBLANK
 70
     0
 71
     0
 10
0.0
 20
0.0
 30
0.0
  3
_CLOSEDBLANK
  1

  0
LINE
  5
4A
330
49
100
AcDbEntity
  8
0
100
AcDbLine
 10
-1.0
 20
0.1666666666666667
 30
0.0
 11
0.0
 21
0.0
 31
0.0
  0
LINE
  5
4B
330
49
100
AcDbEntity
  8
0
100
AcDbLine
 10
0.0
 20
0.0
 30
0.0
 11
-1.0
 21
-0.1666666666666667
 31
0.0
  0
LINE
  5
4C
330
49
100
AcDbEntity
  8
0
100
AcDbLine
 10
-1.0
 20
0.1666666666666667
 30
0.0
 11
-1.0
 21
-0.1666666666666667
 31
0.0
  0
ENDBLK
  5
4E
330
49
100
AcDbEntity
  8
0
100
AcDbBlockEnd
  0
BLOCK
  5
55
330
4F
100
AcDbEntity
  8
0
100
AcDbBlockBegin
  2
_BOXBLANK
 70
     0
 71
     0
 10
0.0
 20
0.0
 30
0.0
  3
_BOXBLANK
  1

  0
LINE
  5
50
330
4F
100
AcDbEntity
  8
0
100
AcDbLine
 10
-0.5
 20
-0.5
 30
0.0
 11
0.5
 21
-0.5
 31
0.0
  0
LINE
  5
51
330
4F
100
AcDbEntity
  8
0
100
AcDbLine
 10
0.5
 20
-0.5
 30
0.0
 11
0.5
 21
0.5
 31
0.0
  0
LINE
  5
52
330
4F
100
AcDbEntity
  8
0
100
AcDbLine
 10
0.5
 20
0.5
 30
0.0
 11
-0.5
 21
0.5
 31
0.0
  0
LINE
  5
53
330
4F
100
AcDbEntity
  8
0
100
AcDbLine
 10
-0.5
 20
0.5
 30
0.0
 11
-0.5
 21
-0.5
 31
0.0
  0
LINE
  5
54
330
4F
100
AcDbEntity
  8
0
100
AcDbLine
 10
-0.5
 20
0.0
 30
0.0
 11
-1.0
 21
0.0
 31
0.0
  0
ENDBLK
  5
56
330
4F
100
AcDbEntity
  8
0
100
AcDbBlockEnd
  0
BLOCK
  5
5A
330
57
100
AcDbEntity
  8
0
100
AcDbBlockBegin
  2
_BOXFILLED
 70
     0
 71
     0
 10
0.0
 20
0.0
 30
0.0
  3
_BOXFILLED
  1

  0
SOLID
  5
58
330
57
100
AcDbEntity
  8
0
100
AcDbTrace
 10
-0.5
 20
0.5
 30
0.0
 11
0.5
 21
0.5
 31
0.0
 12
-0.5
 22
-0.5
 32
0.0
 13
0.5
 23
-0.5
 33
0.0
  0
LINE
  5
59
330
57
100
AcDbEntity
  8
0
100
AcDbLine
 10
-0.5
 20
0.0
 30
0.0
 11
-1.0
 21
0.0
 31
0.0
  0
ENDBLK
  5
5B
330
57
100
AcDbEntity
  8
0
100
AcDbBlockEnd
  0
BLOCK
  5
5F
330
5C
100
AcDbEntity
  8
0
100
AcDbBlockBegin
  2
_INTEGRAL
 70
     0
 71
     0
 10
0.0
 20
0.0
 30
0.0
  3
_INTEGRAL
  1

  0
ARC
  5
5D
330
5C
100
AcDbEntity
  8
0
100
AcDbCircle
 10
0.444888
 20
-0.0913346
 30
0.0
 40
0.4541666
100
AcDbArc
 50
5844.169510334396
 51
9625.69095819783
  0
ARC
  5
5E
330
5C
100
AcDbEntity
  8
0
100
AcDbCircle
 10
-0.444888
 20
0.0913346
 30
0.0
 40
0.4541666
100
AcDbArc
 50
16157.40982268921
 51
19938.93127055265
  0
ENDBLK
  5
60
330
5C
100
AcDbEntity
  8
0
100
AcDbBlockEnd
  0
BLOCK
  5
63
330
61
100
AcDbEntity
  8
0
100
AcDbBlockBegin
  2
_OBLIQUE
 70
     0
 71
     0
 10
0.0
 20
0.0
 30
0.0
  3
_OBLIQUE
  1

  0
LINE
  5
62
330
61
100
AcDbEntity
  8
0
100
AcDbLine
 10
-0.5
 20
-0.5
 30
0.0
 11
0.5
 21
0.5
 31
0.0
  0
ENDBLK
  5
64
330
61
100
AcDbEntity
  8
0
100
AcDbBlockEnd
  0
BLOCK
  5
66
330
65
100
AcDbEntity
  8
0
100
AcDbBlockBegin
  2
_NONE
 70
     0
 71
     0
 10
0.0
 20
0.0
 30
0.0
  3
_NONE
  1

  0
ENDBLK
  5
67
330
65
100
AcDbEntity
  8
0
100
AcDbBlockEnd
  0
BLOCK
  5
87
330
86
100
AcDbEntity
  8
0
100
AcDbBlockBegin
  2
*G12
 70
     1
 71
     0
 10
0.0
 20
0.0
 30
0.0
  3
*G12
  1

  0
LINE
  5
89
330
86
100
AcDbEntity
  8
1
  6
Continuous
 62
     7
100
AcDbLine
 10
55.99659730893639
 20
144.4373427341535
 30
0.0
 11
55.99659730893639
 21
130.4373427341535
 31
0.0
  0
ARC
  5
8A
330
86
100
AcDbEntity
  8
1
  6
Continuous
 62
     7
100
AcDbCircle
 10
56.99659730893639
 20
144.4373427341535
 30
0.0
 40
1.0
100
AcDbArc
 50
89.99999999999991
 51
179.9999999999998
  0
LINE
  5
8B
330
86
100
AcDbEntity
  8
1
  6
Continuous
 62
     7
100
AcDbLine
 10
55.99659730893639
 20
130.4373427341535
 30
0.0
 11
55.99659730893627
 21
92.43734273415353
 31
0.0
  0
ARC
  5
8C
330
86
100
AcDbEntity
  8
1
  6
Continuous
 62
     7
100
AcDbCircle
 10
56.99659730893627
 20
92.43734273415352
 30
0.0
 40
1.0
100
AcDbArc
 50
179.9999999999992
 51
269.9999999999998
  0
LINE
  5
8D
330
86
100
AcDbEntity
  8
1
  6
Continuous
 62
     7
100
AcDbLine
 10
56.99659730893627
 20
91.43734273415352
 30
0.0
 11
97.9965973089365
 21
91.43734273415332
 31
0.0
  0
ARC
  5
8E
330
86
100
AcDbEntity
  8
1
  6
Continuous
 62
     7
100
AcDbCircle
 10
97.9965973089365
 20
92.43734273415332
 30
0.0
 40
1.0
100
AcDbArc
 50
269.9999999999998
 51
0.0
  0
LINE
  5
8F
330
86
100
AcDbEntity
  8
1
  6
Continuous
 62
     7
100
AcDbLine
 10
98.9965973089365
 20
92.43734273415332
 30
0.0
 11
98.99659730893661
 21
144.4373427341532
 31
0.0
  0
LINE
  5
90
330
86
100
AcDbEntity
  8
1
  6
Continuous
 62
     7
100
AcDbLine
 10
97.99659730893661
 20
145.4373427341533
 30
0.0
 11
56.99659730893639
 21
145.4373427341535
 31
0.0
  0
ARC
  5
91
330
86
100
AcDbEntity
  8
1
  6
Continuous
 62
     7
100
AcDbCircle
 10
97.99659730893661
 20
144.4373427341533
 30
0.0
 40
1.0
100
AcDbArc
 50
359.9999999999964
 51
89.99999999999991
  0
ENDBLK
  5
88
330
86
100
AcDbEntity
  8
0
100
AcDbBlockEnd
  0
BLOCK
  5
A0
330
9F
100
AcDbEntity
  8
0
100
AcDbBlockBegin
  2
*G13
 70
     1
 71
     0
 10
0.0
 20
0.0
 30
0.0
  3
*G13
  1

  0
INSERT
  5
AA
330
9F
100
AcDbEntity
  8
0
100
AcDbBlockReference
  2
*G14
 10
0.0
 20
0.0
 30
0.0
  0
CIRCLE
  5
AB
330
9F
100
AcDbEntity
  8
7
  6
DOT
 62
    14
100
AcDbCircle
 10
76.99659730893642
 20
96.4373427341533
 30
0.0
 40
0.65
  0
ENDBLK
  5
A1
330
9F
100
AcDbEntity
  8
0
100
AcDbBlockEnd
  0
BLOCK
  5
A3
330
A2
100
AcDbEntity
  8
0
100
AcDbBlockBegin
  2
*G14
 70
     1
 71
     0
 10
0.0
 20
0.0
 30
0.0
  3
*G14
  1

  0
LINE
  5
A5
330
A2
100
AcDbEntity
  8
7
  6
DOT
 62
    14
100
AcDbLine
 10
61.4465973089364
 20
93.48734273415329
 30
0.0
 11
92.5465973089364
 21
93.48734273415329
 31
0.0
  0
LINE
  5
A6
330
A2
100
AcDbEntity
  8
7
  6
DOT
 62
    14
100
AcDbLine
 10
92.5465973089364
 20
93.48734273415329
 30
0.0
 11
92.5465973089364
 21
99.3873427341533
 31
0.0
  0
LINE
  5
A7
330
A2
100
AcDbEntity
  8
7
  6
DOT
 62
    14
100
AcDbLine
 10
92.5465973089364
 20
99.3873427341533
 30
0.0
 11
62.9465973089364
 21
99.3873427341533
 31
0.0
  0
LINE
  5
A8
330
A2
100
AcDbEntity
  8
7
  6
DOT
 62
    14
100
AcDbLine
 10
61.4465973089364
 20
93.48734273415329
 30
0.0
 11
61.4465973089364
 21
97.8873427341533
 31
0.0
  0
LINE
  5
A9
330
A2
100
AcDbEntity
  8
7
  6
DOT
 62
    14
100
AcDbLine
 10
62.9465973089364
 20
99.3873427341533
 30
0.0
 11
61.4465973089364
 21
97.8873427341533
 31
0.0
  0
ENDBLK
  5
A4
330
A2
100
AcDbEntity
  8
0
100
AcDbBlockEnd
  0
BLOCK
  5
AE
330
AD
100
AcDbEntity
  8
0
100
AcDbBlockBegin
  2
*G15
 70
     1
 71
     0
 10
0.0
 20
0.0
 30
0.0
  3
*G15
  1

  0
INSERT
  5
B8
330
AD
100
AcDbEntity
  8
0
100
AcDbBlockReference
  2
*G16
 10
0.0
 20
0.0
 30
0.0
  0
CIRCLE
  5
B9
330
AD
100
AcDbEntity
  8
7
  6
DOT
 62
    14
100
AcDbCircle
 10
76.99659730893642
 20
140.4373427341532
 30
0.0
 40
0.65
  0
ENDBLK
  5
AF
330
AD
100
AcDbEntity
  8
0
100
AcDbBlockEnd
  0
BLOCK
  5
B1
330
B0
100
AcDbEntity
  8
0
100
AcDbBlockBegin
  2
*G16
 70
     1
 71
     0
 10
0.0
 20
0.0
 30
0.0
  3
*G16
  1

  0
LINE
  5
B3
330
B0
100
AcDbEntity
  8
7
  6
DOT
 62
    14
100
AcDbLine
 10
61.4465973089364
 20
137.4873427341532
 30
0.0
 11
92.5465973089364
 21
137.4873427341532
 31
0.0
  0
LINE
  5
B4
330
B0
100
AcDbEntity
  8
7
  6
DOT
 62
    14
100
AcDbLine
 10
92.5465973089364
 20
137.4873427341532
 30
0.0
 11
92.5465973089364
 21
143.3873427341532
 31
0.0
  0
LINE
  5
B5
330
B0
100
AcDbEntity
  8
7
  6
DOT
 62
    14
100
AcDbLine
 10
92.5465973089364
 20
143.3873427341532
 30
0.0
 11
62.9465973089364
 21
143.3873427341532
 31
0.0
  0
LINE
  5
B6
330
B0
100
AcDbEntity
  8
7
  6
DOT
 62
    14
100
AcDbLine
 10
61.4465973089364
 20
137.4873427341532
 30
0.0
 11
61.4465973089364
 21
141.8873427341532
 31
0.0
  0
LINE
  5
B7
330
B0
100
AcDbEntity
  8
7
  6
DOT
 62
    14
100
AcDbLine
 10
62.9465973089364
 20
143.3873427341532
 30
0.0
 11
61.4465973089364
 21
141.8873427341532
 31
0.0
  0
ENDBLK
  5
B2
330
B0
100
AcDbEntity
  8
0
100
AcDbBlockEnd
  0
BLOCK
  5
C2
330
C1
100
AcDbEntity
  8
0
100
AcDbBlockBegin
  2
*G17
 70
     1
 71
     0
 10
0.0
 20
0.0
 30
0.0
  3
*G17
  1

  0
LINE
  5
C4
330
C1
100
AcDbEntity
  8
1
  6
Continuous
 62
     7
100
AcDbLine
 10
203.621349062026
 20
142.2139021883441
 30
0.0
 11
203.621349062026
 21
138.6733173930225
 31
0.0
  0
LINE
  5
C5
330
C1
100
AcDbEntity
  8
1
  6
Continuous
 62
     7
100
AcDbLine
 10
203.621349062026
 20
138.6733173930225
 30
0.0
 11
205.021349062026
 21
138.6733173930225
 31
0.0
  0
ARC
  5
C6
330
C1
100
AcDbEntity
  8
1
  6
Continuous
 62
     7
100
AcDbCircle
 10
205.021349062026
 20
138.9733173930225
 30
0.0
 40
0.3
100
AcDbArc
 50
269.9999999999998
 51
0.0
  0
LINE
  5
C7
330
C1
100
AcDbEntity
  8
1
  6
Continuous
 62
     7
100
AcDbLine
 10
205.321349062026
 20
138.9733173930225
 30
0.0
 11
205.321349062026
 21
141.9139021883441
 31
0.0
  0
LINE
  5
C8
330
C1
100
AcDbEntity
  8
1
  6
Continuous
 62
     7
100
AcDbLine
 10
205.0213490620259
 20
142.2139021883441
 30
0.0
 11
203.621349062026
 21
142.2139021883441
 31
0.0
  0
ARC
  5
C9
330
C1
100
AcDbEntity
  8
1
  6
Continuous
 62
     7
100
AcDbCircle
 10
205.021349062026
 20
141.9139021883441
 30
0.0
 40
0.3
100
AcDbArc
 50
0.0
 51
90.00000000001087
  0
ENDBLK
  5
C3
330
C1
100
AcDbEntity
  8
0
100
AcDbBlockEnd
  0
BLOCK
  5
CC
330
CB
100
AcDbEntity
  8
0
100
AcDbBlockBegin
  2
*G18
 70
     1
 71
     0
 10
0.0
 20
0.0
 30
0.0
  3
*G18
  1

  0
LINE
  5
CE
330
CB
100
AcDbEntity
  8
1
  6
Continuous
 62
     7
100
AcDbLine
 10
200.821349062026
 20
93.48734273415326
 30
0.0
 11
200.821349062026
 21
99.38734273415326
 31
0.0
  0
LINE
  5
CF
330
CB
100
AcDbEntity
  8
1
  6
Continuous
 62
     7
100
AcDbLine
 10
203.321349062026
 20
93.48734273415326
 30
0.0
 11
200.821349062026
 21
93.48734273415326
 31
0.0
  0
ARC
  5
D0
330
CB
100
AcDbEntity
  8
1
  6
Continuous
 62
     7
100
AcDbCircle
 10
203.321349062026
 20
93.78734273415327
 30
0.0
 40
0.3
100
AcDbArc
 50
269.9999999999998
 51
0.0
  0
LINE
  5
D1
330
CB
100
AcDbEntity
  8
1
  6
Continuous
 62
     7
100
AcDbLine
 10
203.621349062026
 20
99.08734273415322
 30
0.0
 11
203.621349062026
 21
93.78734273415327
 31
0.0
  0
LINE
  5
D2
330
CB
100
AcDbEntity
  8
1
  6
Continuous
 62
     7
100
AcDbLine
 10
200.821349062026
 20
99.38734273415326
 30
0.0
 11
203.321349062026
 21
99.38734273415326
 31
0.0
  0
ARC
  5
D3
330
CB
100
AcDbEntity
  8
1
  6
Continuous
 62
     7
100
AcDbCircle
 10
203.321349062026
 20
99.08734273415325
 30
0.0
 40
0.3
100
AcDbArc
 50
359.9999999999942
 51
89.99999999999991
  0
ENDBLK
  5
CD
330
CB
100
AcDbEntity
  8
0
100
AcDbBlockEnd
  0
BLOCK
  5
D6
330
D5
100
AcDbEntity
  8
0
100
AcDbBlockBegin
  2
*G19
 70
     1
 71
     0
 10
0.0
 20
0.0
 30
0.0
  3
*G19
  1

  0
LINE
  5
D8
330
D5
100
AcDbEntity
  8
1
  6
Continuous
 62
     7
100
AcDbLine
 10
203.621349062026
 20
94.66078327996235
 30
0.0
 11
203.621349062026
 21
98.20136807528397
 31
0.0
  0
LINE
  5
D9
330
D5
100
AcDbEntity
  8
1
  6
Continuous
 62
     7
100
AcDbLine
 10
203.621349062026
 20
98.20136807528397
 30
0.0
 11
205.021349062026
 21
98.20136807528397
 31
0.0
  0
ARC
  5
DA
330
D5
100
AcDbEntity
  8
1
  6
Continuous
 62
     7
100
AcDbCircle
 10
205.021349062026
 20
97.90136807528395
 30
0.0
 40
0.3
100
AcDbArc
 50
0.0
 51
89.99999999999991
  0
LINE
  5
DB
330
D5
100
AcDbEntity
  8
1
  6
Continuous
 62
     7
100
AcDbLine
 10
205.321349062026
 20
97.90136807528395
 30
0.0
 11
205.321349062026
 21
94.96078327996238
 31
0.0
  0
LINE
  5
DC
330
D5
100
AcDbEntity
  8
1
  6
Continuous
 62
     7
100
AcDbLine
 10
205.0213490620259
 20
94.66078327996235
 30
0.0
 11
203.621349062026
 21
94.66078327996235
 31
0.0
  0
ARC
  5
DD
330
D5
100
AcDbEntity
  8
1
  6
Continuous
 62
     7
100
AcDbCircle
 10
205.021349062026
 20
94.96078327996236
 30
0.0
 40
0.3
100
AcDbArc
 50
269.9999999999888
 51
0.0000000000054281
  0
ENDBLK
  5
D7
330
D5
100
AcDbEntity
  8
0
100
AcDbBlockEnd
  0
BLOCK
  5
E0
330
DF
100
AcDbEntity
  8
0
100
AcDbBlockBegin
  2
*G20
 70
     1
 71
     0
 10
0.0
 20
0.0
 30
0.0
  3
*G20
  1

  0
LINE
  5
E2
330
DF
100
AcDbEntity
  8
1
  6
Continuous
 62
     7
100
AcDbLine
 10
203.321349062026
 20
143.3873427341532
 30
0.0
 11
200.821349062026
 21
143.3873427341532
 31
0.0
  0
ARC
  5
E3
330
DF
100
AcDbEntity
  8
1
  6
Continuous
 62
     7
100
AcDbCircle
 10
203.321349062026
 20
143.0873427341532
 30
0.0
 40
0.3
100
AcDbArc
 50
0.0
 51
89.99999999999991
  0
LINE
  5
E4
330
DF
100
AcDbEntity
  8
1
  6
Continuous
 62
     7
100
AcDbLine
 10
203.621349062026
 20
137.7873427341532
 30
0.0
 11
203.621349062026
 21
143.0873427341532
 31
0.0
  0
LINE
  5
E5
330
DF
100
AcDbEntity
  8
1
  6
Continuous
 62
     7
100
AcDbLine
 10
200.821349062026
 20
137.4873427341531
 30
0.0
 11
203.321349062026
 21
137.4873427341531
 31
0.0
  0
ARC
  5
E6
330
DF
100
AcDbEntity
  8
1
  6
Continuous
 62
     7
100
AcDbCircle
 10
203.321349062026
 20
137.7873427341532
 30
0.0
 40
0.3
100
AcDbArc
 50
269.9999999999998
 51
0.0000000000108563
  0
LINE
  5
E7
330
DF
100
AcDbEntity
  8
1
  6
Continuous
 62
     7
100
AcDbLine
 10
200.821349062026
 20
145.4373427341532
 30
0.0
 11
200.821349062026
 21
134.5083562355571
 31
0.0
  0
ENDBLK
  5
E1
330
DF
100
AcDbEntity
  8
0
100
AcDbBlockEnd
  0
BLOCK
  5
EA
330
E9
100
AcDbEntity
  8
0
100
AcDbBlockBegin
  2
*G21
 70
     1
 71
     0
 10
0.0
 20
0.0
 30
0.0
  3
*G21
  1

  0
LINE
  5
EC
330
E9
100
AcDbEntity
  8
1
  6
Continuous
 62
     7
100
AcDbLine
 10
199.221349062026
 20
145.4373427341532
 30
0.0
 11
199.221349062026
 21
91.43734273415346
 31
0.0
  0
LINE
  5
ED
330
E9
100
AcDbEntity
  8
1
  6
Continuous
 62
     7
100
AcDbLine
 10
199.221349062026
 20
91.43734273415346
 30
0.0
 11
200.821349062026
 21
91.43734273415346
 31
0.0
  0
LINE
  5
EE
330
E9
100
AcDbEntity
  8
1
  6
Continuous
 62
     7
100
AcDbLine
 10
200.821349062026
 20
91.43734273415346
 30
0.0
 11
200.821349062026
 21
134.5083562355571
 31
0.0
  0
LINE
  5
EF
330
E9
100
AcDbEntity
  8
1
  6
Continuous
 62
     7
100
AcDbLine
 10
200.821349062026
 20
145.4373427341532
 30
0.0
 11
199.221349062026
 21
145.4373427341532
 31
0.0
  0
ENDBLK
  5
EB
330
E9
100
AcDbEntity
  8
0
100
AcDbBlockEnd
  0
BLOCK
  5
F2
330
F1
100
AcDbEntity
  8
0
100
AcDbBlockBegin
  2
*G22
 70
     1
 71
     0
 10
0.0
 20
0.0
 30
0.0
  3
*G22
  1

  0
LINE
  5
F4
330
F1
100
AcDbEntity
  8
3
  6
Continuous
 62
    14
100
AcDbLine
 10
197.971349062026
 20
130.4473427341533
 30
0.0
 11
197.971349062026
 21
128.8473427341533
 31
0.0
  0
LINE
  5
F5
330
F1
100
AcDbEntity
  8
3
  6
Continuous
 62
    14
100
AcDbLine
 10
197.971349062026
 20
128.8473427341533
 30
0.0
 11
199.221349062026
 21
128.8473427341533
 31
0.0
  0
LINE
  5
F6
330
F1
100
AcDbEntity
  8
3
  6
Continuous
 62
    14
100
AcDbLine
 10
199.221349062026
 20
128.8473427341533
 30
0.0
 11
199.221349062026
 21
130.4473427341533
 31
0.0
  0
LINE
  5
F7
330
F1
100
AcDbEntity
  8
3
  6
Continuous
 62
    14
100
AcDbLine
 10
199.221349062026
 20
130.4473427341533
 30
0.0
 11
197.971349062026
 21
130.4473427341533
 31
0.0
  0
ENDBLK
  5
F3
330
F1
100
AcDbEntity
  8
0
100
AcDbBlockEnd
  0
BLOCK
  5
FA
330
F9
100
AcDbEntity
  8
0
100
AcDbBlockBegin
  2
*G23
 70
     1
 71
     0
 10
0.0
 20
0.0
 30
0.0
  3
*G23
  1

  0
LINE
  5
FC
330
F9
100
AcDbEntity
  8
3
  6
Continuous
 62
    14
100
AcDbLine
 10
197.971349062026
 20
127.9073427341533
 30
0.0
 11
197.971349062026
 21
126.3073427341533
 31
0.0
  0
LINE
  5
FD
330
F9
100
AcDbEntity
  8
3
  6
Continuous
 62
    14
100
AcDbLine
 10
197.971349062026
 20
126.3073427341533
 30
0.0
 11
199.221349062026
 21
126.3073427341533
 31
0.0
  0
LINE
  5
FE
330
F9
100
AcDbEntity
  8
3
  6
Continuous
 62
    14
100
AcDbLine
 10
199.221349062026
 20
126.3073427341533
 30
0.0
 11
199.221349062026
 21
127.9073427341533
 31
0.0
  0
LINE
  5
FF
330
F9
100
AcDbEntity
  8
3
  6
Continuous
 62
    14
100
AcDbLine
 10
199.221349062026
 20
127.9073427341533
 30
0.0
 11
197.971349062026
 21
127.9073427341533
 31
0.0
  0
ENDBLK
  5
FB
330
F9
100
AcDbEntity
  8
0
100
AcDbBlockEnd
  0
BLOCK
  5
102
330
101
100
AcDbEntity
  8
0
100
AcDbBlockBegin
  2
*G24
 70
     1
 71
     0
 10
0.0
 20
0.0
 30
0.0
  3
*G24
  1

  0
LINE
  5
104
330
101
100
AcDbEntity
  8
3
  6
Continuous
 62
    14
100
AcDbLine
 10
197.971349062026
 20
125.3673427341533
 30
0.0
 11
197.971349062026
 21
123.7673427341533
 31
0.0
  0
LINE
  5
105
330
101
100
AcDbEntity
  8
3
  6
Continuous
 62
    14
100
AcDbLine
 10
197.971349062026
 20
123.7673427341533
 30
0.0
 11
199.221349062026
 21
123.7673427341533
 31
0.0
  0
LINE
  5
106
330
101
100
AcDbEntity
  8
3
  6
Continuous
 62
    14
100
AcDbLine
 10
199.221349062026
 20
123.7673427341533
 30
0.0
 11
199.221349062026
 21
125.3673427341533
 31
0.0
  0
LINE
  5
107
330
101
100
AcDbEntity
  8
3
  6
Continuous
 62
    14
100
AcDbLine
 10
199.221349062026
 20
125.3673427341533
 30
0.0
 11
197.971349062026
 21
125.3673427341533
 31
0.0
  0
ENDBLK
  5
103
330
101
100
AcDbEntity
  8
0
100
AcDbBlockEnd
  0
BLOCK
  5
10A
330
109
100
AcDbEntity
  8
0
100
AcDbBlockBegin
  2
*G25
 70
     1
 71
     0
 10
0.0
 20
0.0
 30
0.0
  3
*G25
  1

  0
LINE
  5
10C
330
109
100
AcDbEntity
  8
3
  6
Continuous
 62
    14
100
AcDbLine
 10
197.971349062026
 20
122.8273427341533
 30
0.0
 11
197.971349062026
 21
121.2273427341532
 31
0.0
  0
LINE
  5
10D
330
109
100
AcDbEntity
  8
3
  6
Continuous
 62
    14
100
AcDbLine
 10
197.971349062026
 20
121.2273427341532
 30
0.0
 11
199.221349062026
 21
121.2273427341532
 31
0.0
  0
LINE
  5
10E
330
109
100
AcDbEntity
  8
3
  6
Continuous
 62
    14
100
AcDbLine
 10
199.221349062026
 20
121.2273427341532
 30
0.0
 11
199.221349062026
 21
122.8273427341533
 31
0.0
  0
LINE
  5
10F
330
109
100
AcDbEntity
  8
3
  6
Continuous
 62
    14
100
AcDbLine
 10
199.221349062026
 20
122.8273427341533
 30
0.0
 11
197.971349062026
 21
122.8273427341533
 31
0.0
  0
ENDBLK
  5
10B
330
109
100
AcDbEntity
  8
0
100
AcDbBlockEnd
  0
BLOCK
  5
112
330
111
100
AcDbEntity
  8
0
100
AcDbBlockBegin
  2
*G26
 70
     1
 71
     0
 10
0.0
 20
0.0
 30
0.0
  3
*G26
  1

  0
LINE
  5
114
330
111
100
AcDbEntity
  8
3
  6
Continuous
 62
    14
100
AcDbLine
 10
197.971349062026
 20
120.2873427341533
 30
0.0
 11
197.971349062026
 21
118.6873427341533
 31
0.0
  0
LINE
  5
115
330
111
100
AcDbEntity
  8
3
  6
Continuous
 62
    14
100
AcDbLine
 10
197.971349062026
 20
118.6873427341533
 30
0.0
 11
199.221349062026
 21
118.6873427341533
 31
0.0
  0
LINE
  5
116
330
111
100
AcDbEntity
  8
3
  6
Continuous
 62
    14
100
AcDbLine
 10
199.221349062026
 20
118.6873427341533
 30
0.0
 11
199.221349062026
 21
120.2873427341533
 31
0.0
  0
LINE
  5
117
330
111
100
AcDbEntity
  8
3
  6
Continuous
 62
    14
100
AcDbLine
 10
199.221349062026
 20
120.2873427341533
 30
0.0
 11
197.971349062026
 21
120.2873427341533
 31
0.0
  0
ENDBLK
  5
113
330
111
100
AcDbEntity
  8
0
100
AcDbBlockEnd
  0
BLOCK
  5
11A
330
119
100
AcDbEntity
  8
0
100
AcDbBlockBegin
  2
*G27
 70
     1
 71
     0
 10
0.0
 20
0.0
 30
0.0
  3
*G27
  1

  0
LINE
  5
11C
330
119
100
AcDbEntity
  8
3
  6
Continuous
 62
    14
100
AcDbLine
 10
197.971349062026
 20
117.7473427341533
 30
0.0
 11
197.971349062026
 21
116.1473427341533
 31
0.0
  0
LINE
  5
11D
330
119
100
AcDbEntity
  8
3
  6
Continuous
 62
    14
100
AcDbLine
 10
197.971349062026
 20
116.1473427341533
 30
0.0
 11
199.221349062026
 21
116.1473427341533
 31
0.0
  0
LINE
  5
11E
330
119
100
AcDbEntity
  8
3
  6
Continuous
 62
    14
100
AcDbLine
 10
199.221349062026
 20
116.1473427341533
 30
0.0
 11
199.221349062026
 21
117.7473427341533
 31
0.0
  0
LINE
  5
11F
330
119
100
AcDbEntity
  8
3
  6
Continuous
 62
    14
100
AcDbLine
 10
199.221349062026
 20
117.7473427341533
 30
0.0
 11
197.971349062026
 21
117.7473427341533
 31
0.0
  0
ENDBLK
  5
11B
330
119
100
AcDbEntity
  8
0
100
AcDbBlockEnd
  0
BLOCK
  5
122
330
121
100
AcDbEntity
  8
0
100
AcDbBlockBegin
  2
*G28
 70
     1
 71
     0
 10
0.0
 20
0.0
 30
0.0
  3
*G28
  1

  0
LINE
  5
124
330
121
100
AcDbEntity
  8
3
  6
Continuous
 62
    14
100
AcDbLine
 10
197.971349062026
 20
115.2073427341533
 30
0.0
 11
197.971349062026
 21
113.6073427341533
 31
0.0
  0
LINE
  5
125
330
121
100
AcDbEntity
  8
3
  6
Continuous
 62
    14
100
AcDbLine
 10
197.971349062026
 20
113.6073427341533
 30
0.0
 11
199.221349062026
 21
113.6073427341533
 31
0.0
  0
LINE
  5
126
330
121
100
AcDbEntity
  8
3
  6
Continuous
 62
    14
100
AcDbLine
 10
199.221349062026
 20
113.6073427341533
 30
0.0
 11
199.221349062026
 21
115.2073427341533
 31
0.0
  0
LINE
  5
127
330
121
100
AcDbEntity
  8
3
  6
Continuous
 62
    14
100
AcDbLine
 10
199.221349062026
 20
115.2073427341533
 30
0.0
 11
197.971349062026
 21
115.2073427341533
 31
0.0
  0
ENDBLK
  5
123
330
121
100
AcDbEntity
  8
0
100
AcDbBlockEnd
  0
BLOCK
  5
12A
330
129
100
AcDbEntity
  8
0
100
AcDbBlockBegin
  2
*G29
 70
     1
 71
     0
 10
0.0
 20
0.0
 30
0.0
  3
*G29
  1

  0
LINE
  5
12C
330
129
100
AcDbEntity
  8
3
  6
Continuous
 62
    14
100
AcDbLine
 10
195.021349062026
 20
130.9173427341533
 30
0.0
 11
195.021349062026
 21
113.1373427341533
 31
0.0
  0
LINE
  5
12D
330
129
100
AcDbEntity
  8
3
  6
Continuous
 62
    14
100
AcDbLine
 10
195.021349062026
 20
113.1373427341533
 30
0.0
 11
197.971349062026
 21
113.1373427341533
 31
0.0
  0
LINE
  5
12E
330
129
100
AcDbEntity
  8
3
  6
Continuous
 62
    14
100
AcDbLine
 10
197.971349062026
 20
113.1373427341533
 30
0.0
 11
197.971349062026
 21
130.9173427341533
 31
0.0
  0
LINE
  5
12F
330
129
100
AcDbEntity
  8
3
  6
Continuous
 62
    14
100
AcDbLine
 10
197.971349062026
 20
130.9173427341533
 30
0.0
 11
195.021349062026
 21
130.9173427341533
 31
0.0
  0
ENDBLK
  5
12B
330
129
100
AcDbEntity
  8
0
100
AcDbBlockEnd
  0
BLOCK
  5
14B
330
14A
100
AcDbEntity
  8
0
100
AcDbBlockBegin
  2
*G30
 70
     1
 71
     0
 10
0.0
 20
0.0
 30
0.0
  3
*G30
  1

  0
LINE
  5
14D
330
14A
100
AcDbEntity
  8
9
  6
DOT
 62
    14
100
AcDbLine
 10
190.831349062026
 20
128.2206760674866
 30
0.0
 11
190.831349062026
 21
125.9940094008199
 31
0.0
  0
LINE
  5
14E
330
14A
100
AcDbEntity
  8
9
  6
DOT
 62
    14
100
AcDbLine
 10
190.831349062026
 20
125.9940094008199
 30
0.0
 11
192.911349062026
 21
125.9940094008199
 31
0.0
  0
LINE
  5
14F
330
14A
100
AcDbEntity
  8
9
  6
DOT
 62
    14
100
AcDbLine
 10
192.911349062026
 20
125.9940094008199
 30
0.0
 11
192.911349062026
 21
128.2206760674866
 31
0.0
  0
LINE
  5
150
330
14A
100
AcDbEntity
  8
9
  6
DOT
 62
    14
100
AcDbLine
 10
192.911349062026
 20
128.2206760674866
 30
0.0
 11
190.831349062026
 21
128.2206760674866
 31
0.0
  0
ENDBLK
  5
14C
330
14A
100
AcDbEntity
  8
0
100
AcDbBlockEnd
  0
BLOCK
  5
153
330
152
100
AcDbEntity
  8
0
100
AcDbBlockBegin
  2
*G31
 70
     1
 71
     0
 10
0.0
 20
0.0
 30
0.0
  3
*G31
  1

  0
LINE
  5
155
330
152
100
AcDbEntity
  8
9
  6
DOT
 62
    14
100
AcDbLine
 10
190.831349062026
 20
125.6806760674866
 30
0.0
 11
190.831349062026
 21
123.4540094008199
 31
0.0
  0
LINE
  5
156
330
152
100
AcDbEntity
  8
9
  6
DOT
 62
    14
100
AcDbLine
 10
190.831349062026
 20
123.4540094008199
 30
0.0
 11
192.911349062026
 21
123.4540094008199
 31
0.0
  0
LINE
  5
157
330
152
100
AcDbEntity
  8
9
  6
DOT
 62
    14
100
AcDbLine
 10
192.911349062026
 20
123.4540094008199
 30
0.0
 11
192.911349062026
 21
125.6806760674866
 31
0.0
  0
LINE
  5
158
330
152
100
AcDbEntity
  8
9
  6
DOT
 62
    14
100
AcDbLine
 10
192.911349062026
 20
125.6806760674866
 30
0.0
 11
190.831349062026
 21
125.6806760674866
 31
0.0
  0
ENDBLK
  5
154
330
152
100
AcDbEntity
  8
0
100
AcDbBlockEnd
  0
BLOCK
  5
15B
330
15A
100
AcDbEntity
  8
0
100
AcDbBlockBegin
  2
*G32
 70
     1
 71
     0
 10
0.0
 20
0.0
 30
0.0
  3
*G32
  1

  0
LINE
  5
15D
330
15A
100
AcDbEntity
  8
9
  6
DOT
 62
    14
100
AcDbLine
 10
190.831349062026
 20
123.1406760674866
 30
0.0
 11
190.831349062026
 21
120.9140094008199
 31
0.0
  0
LINE
  5
15E
330
15A
100
AcDbEntity
  8
9
  6
DOT
 62
    14
100
AcDbLine
 10
190.831349062026
 20
120.9140094008199
 30
0.0
 11
192.911349062026
 21
120.9140094008199
 31
0.0
  0
LINE
  5
15F
330
15A
100
AcDbEntity
  8
9
  6
DOT
 62
    14
100
AcDbLine
 10
192.911349062026
 20
120.9140094008199
 30
0.0
 11
192.911349062026
 21
123.1406760674866
 31
0.0
  0
LINE
  5
160
330
15A
100
AcDbEntity
  8
9
  6
DOT
 62
    14
100
AcDbLine
 10
192.911349062026
 20
123.1406760674866
 30
0.0
 11
190.831349062026
 21
123.1406760674866
 31
0.0
  0
ENDBLK
  5
15C
330
15A
100
AcDbEntity
  8
0
100
AcDbBlockEnd
  0
BLOCK
  5
163
330
162
100
AcDbEntity
  8
0
100
AcDbBlockBegin
  2
*G33
 70
     1
 71
     0
 10
0.0
 20
0.0
 30
0.0
  3
*G33
  1

  0
LINE
  5
165
330
162
100
AcDbEntity
  8
9
  6
DOT
 62
    14
100
AcDbLine
 10
190.831349062026
 20
120.6006760674866
 30
0.0
 11
190.831349062026
 21
118.3740094008199
 31
0.0
  0
LINE
  5
166
330
162
100
AcDbEntity
  8
9
  6
DOT
 62
    14
100
AcDbLine
 10
190.831349062026
 20
118.3740094008199
 30
0.0
 11
192.911349062026
 21
118.3740094008199
 31
0.0
  0
LINE
  5
167
330
162
100
AcDbEntity
  8
9
  6
DOT
 62
    14
100
AcDbLine
 10
192.911349062026
 20
118.3740094008199
 30
0.0
 11
192.911349062026
 21
120.6006760674866
 31
0.0
  0
LINE
  5
168
330
162
100
AcDbEntity
  8
9
  6
DOT
 62
    14
100
AcDbLine
 10
192.911349062026
 20
120.6006760674866
 30
0.0
 11
190.831349062026
 21
120.6006760674866
 31
0.0
  0
ENDBLK
  5
164
330
162
100
AcDbEntity
  8
0
100
AcDbBlockEnd
  0
BLOCK
  5
16B
330
16A
100
AcDbEntity
  8
0
100
AcDbBlockBegin
  2
*G34
 70
     1
 71
     0
 10
0.0
 20
0.0
 30
0.0
  3
*G34
  1

  0
LINE
  5
16D
330
16A
100
AcDbEntity
  8
9
  6
DOT
 62
    14
100
AcDbLine
 10
190.831349062026
 20
118.0606760674866
 30
0.0
 11
190.831349062026
 21
115.8340094008199
 31
0.0
  0
LINE
  5
16E
330
16A
100
AcDbEntity
  8
9
  6
DOT
 62
    14
100
AcDbLine
 10
190.831349062026
 20
115.8340094008199
 30
0.0
 11
192.911349062026
 21
115.8340094008199
 31
0.0
  0
LINE
  5
16F
330
16A
100
AcDbEntity
  8
9
  6
DOT
 62
    14
100
AcDbLine
 10
192.911349062026
 20
115.8340094008199
 30
0.0
 11
192.911349062026
 21
118.0606760674866
 31
0.0
  0
LINE
  5
170
330
16A
100
AcDbEntity
  8
9
  6
DOT
 62
    14
100
AcDbLine
 10
192.911349062026
 20
118.0606760674866
 30
0.0
 11
190.831349062026
 21
118.0606760674866
 31
0.0
  0
ENDBLK
  5
16C
330
16A
100
AcDbEntity
  8
0
100
AcDbBlockEnd
  0
BLOCK
  5
173
330
172
100
AcDbEntity
  8
0
100
AcDbBlockBegin
  2
*G35
 70
     1
 71
     0
 10
0.0
 20
0.0
 30
0.0
  3
*G35
  1

  0
LINE
  5
175
330
172
100
AcDbEntity
  8
9
  6
DOT
 62
    14
100
AcDbLine
 10
190.831349062026
 20
115.5206760674866
 30
0.0
 11
190.831349062026
 21
113.2940094008199
 31
0.0
  0
LINE
  5
176
330
172
100
AcDbEntity
  8
9
  6
DOT
 62
    14
100
AcDbLine
 10
190.831349062026
 20
113.2940094008199
 30
0.0
 11
192.911349062026
 21
113.2940094008199
 31
0.0
  0
LINE
  5
177
330
172
100
AcDbEntity
  8
9
  6
DOT
 62
    14
100
AcDbLine
 10
192.911349062026
 20
113.2940094008199
 30
0.0
 11
192.911349062026
 21
115.5206760674866
 31
0.0
  0
LINE
  5
178
330
172
100
AcDbEntity
  8
9
  6
DOT
 62
    14
100
AcDbLine
 10
192.911349062026
 20
115.5206760674866
 30
0.0
 11
190.831349062026
 21
115.5206760674866
 31
0.0
  0
ENDBLK
  5
174
330
172
100
AcDbEntity
  8
0
100
AcDbBlockEnd
  0
BLOCK
  5
17C
330
17B
100
AcDbEntity
  8
0
100
AcDbBlockBegin
  2
*G36
 70
     1
 71
     0
 10
0.0
 20
0.0
 30
0.0
  3
*G36
  1

  0
LINE
  5
17E
330
17B
100
AcDbEntity
  8
9
  6
DOT
 62
    14
100
AcDbLine
 10
190.521349062026
 20
130.7631760674866
 30
0.0
 11
190.521349062026
 21
113.2940094008199
 31
0.0
  0
LINE
  5
17F
330
17B
100
AcDbEntity
  8
9
  6
DOT
 62
    14
100
AcDbLine
 10
190.521349062026
 20
113.2940094008199
 30
0.0
 11
193.221349062026
 21
113.2940094008199
 31
0.0
  0
LINE
  5
180
330
17B
100
AcDbEntity
  8
9
  6
DOT
 62
    14
100
AcDbLine
 10
193.221349062026
 20
113.2940094008199
 30
0.0
 11
193.221349062026
 21
130.7631760674866
 31
0.0
  0
LINE
  5
181
330
17B
100
AcDbEntity
  8
9
  6
DOT
 62
    14
100
AcDbLine
 10
193.221349062026
 20
130.7631760674866
 30
0.0
 11
190.521349062026
 21
130.7631760674866
 31
0.0
  0
ENDBLK
  5
17D
330
17B
100
AcDbEntity
  8
0
100
AcDbBlockEnd
  0
BLOCK
  5
184
330
183
100
AcDbEntity
  8
0
100
AcDbBlockBegin
  2
*G37
 70
     1
 71
     0
 10
0.0
 20
0.0
 30
0.0
  3
*G37
  1

  0
LINE
  5
186
330
183
100
AcDbEntity
  8
9
  6
DOT
 62
    14
100
AcDbLine
 10
190.831349062026
 20
130.7631760674866
 30
0.0
 11
190.831349062026
 21
128.5340094008199
 31
0.0
  0
LINE
  5
187
330
183
100
AcDbEntity
  8
9
  6
DOT
 62
    14
100
AcDbLine
 10
190.831349062026
 20
128.5340094008199
 30
0.0
 11
192.911349062026
 21
128.5340094008199
 31
0.0
  0
LINE
  5
188
330
183
100
AcDbEntity
  8
9
  6
DOT
 62
    14
100
AcDbLine
 10
192.911349062026
 20
128.5340094008199
 30
0.0
 11
192.911349062026
 21
130.7631760674866
 31
0.0
  0
LINE
  5
189
330
183
100
AcDbEntity
  8
9
  6
DOT
 62
    14
100
AcDbLine
 10
192.911349062026
 20
130.7631760674866
 30
0.0
 11
190.831349062026
 21
130.7631760674866
 31
0.0
  0
ENDBLK
  5
185
330
183
100
AcDbEntity
  8
0
100
AcDbBlockEnd
  0
BLOCK
  5
1AF
330
1AE
100
AcDbEntity
  8
0
100
AcDbBlockBegin
  2
*G38
 70
     1
 71
     0
 10
0.0
 20
0.0
 30
0.0
  3
*G38
  1

  0
TEXT
  5
1B1
330
1AE
100
AcDbEntity
  8
6
  6
Continuous
 62
    94
100
AcDbText
 10
131.7271075382525
 20
105.5163345862017
 30
0.0
 40
3.5
  1
丸ピンソケット
100
AcDbText
  0
TEXT
  5
1B2
330
1AE
100
AcDbEntity
  8
6
  6
Continuous
 62
    94
100
AcDbText
 10
131.7271075382525
 20
102.5163345862017
 30
0.0
 40
3.5
  1
　適合ピンサイズ：0.64角
100
AcDbText
  0
ENDBLK
  5
1B0
330
1AE
100
AcDbEntity
  8
0
100
AcDbBlockEnd
  0
BLOCK
  5
1CC
330
1CB
100
AcDbEntity
  8
0
100
AcDbBlockBegin
  2
*G39
 70
     1
 71
     0
 10
0.0
 20
0.0
 30
0.0
  3
*G39
  1

  0
LINE
  5
1CE
330
1CB
100
AcDbEntity
  8
3
  6
Continuous
 62
    14
100
AcDbLine
 10
200.821349062026
 20
135.6360322607587
 30
0.0
 11
200.821349062026
 21
134.1375222565015
 31
0.0
  0
LINE
  5
1CF
330
1CB
100
AcDbEntity
  8
3
  6
Continuous
 62
    14
100
AcDbLine
 10
200.821349062026
 20
134.1375222565015
 30
0.0
 11
201.6174750287793
 21
134.1375222565015
 31
0.0
  0
LINE
  5
1D0
330
1CB
100
AcDbEntity
  8
3
  6
Continuous
 62
    14
100
AcDbLine
 10
201.6174750287793
 20
134.1375222565015
 30
0.0
 11
201.6174750287793
 21
135.6360322607587
 31
0.0
  0
LINE
  5
1D1
330
1CB
100
AcDbEntity
  8
3
  6
Continuous
 62
    14
100
AcDbLine
 10
201.6174750287793
 20
135.6360322607587
 30
0.0
 11
200.821349062026
 21
135.6360322607587
 31
0.0
  0
ENDBLK
  5
1CD
330
1CB
100
AcDbEntity
  8
0
100
AcDbBlockEnd
  0
BLOCK
  5
1D4
330
1D3
100
AcDbEntity
  8
0
100
AcDbBlockBegin
  2
*G40
 70
     1
 71
     0
 10
0.0
 20
0.0
 30
0.0
  3
*G40
  1

  0
LINE
  5
1D6
330
1D3
100
AcDbEntity
  8
3
  6
Continuous
 62
    14
100
AcDbLine
 10
200.821349062026
 20
122.82377172436
 30
0.0
 11
200.821349062026
 21
122.1910675003403
 31
0.0
  0
LINE
  5
1D7
330
1D3
100
AcDbEntity
  8
3
  6
Continuous
 62
    14
100
AcDbLine
 10
200.821349062026
 20
122.1910675003403
 30
0.0
 11
201.1054841106581
 21
122.1910675003403
 31
0.0
  0
LINE
  5
1D8
330
1D3
100
AcDbEntity
  8
3
  6
Continuous
 62
    14
100
AcDbLine
 10
201.1054841106581
 20
122.1910675003403
 30
0.0
 11
201.1054841106581
 21
122.82377172436
 31
0.0
  0
LINE
  5
1D9
330
1D3
100
AcDbEntity
  8
3
  6
Continuous
 62
    14
100
AcDbLine
 10
201.1054841106581
 20
122.82377172436
 30
0.0
 11
200.821349062026
 21
122.82377172436
 31
0.0
  0
ENDBLK
  5
1D5
330
1D3
100
AcDbEntity
  8
0
100
AcDbBlockEnd
  0
BLOCK
  5
1DC
330
1DB
100
AcDbEntity
  8
0
100
AcDbBlockBegin
  2
*G41
 70
     1
 71
     0
 10
0.0
 20
0.0
 30
0.0
  3
*G41
  1

  0
LINE
  5
1DE
330
1DB
100
AcDbEntity
  8
3
  6
Continuous
 62
    14
100
AcDbLine
 10
200.821349062026
 20
131.2349737010505
 30
0.0
 11
200.821349062026
 21
129.7364636967934
 31
0.0
  0
LINE
  5
1DF
330
1DB
100
AcDbEntity
  8
3
  6
Continuous
 62
    14
100
AcDbLine
 10
200.821349062026
 20
129.7364636967934
 30
0.0
 11
201.6174750287793
 21
129.7364636967934
 31
0.0
  0
LINE
  5
1E0
330
1DB
100
AcDbEntity
  8
3
  6
Continuous
 62
    14
100
AcDbLine
 10
201.6174750287793
 20
129.7364636967934
 30
0.0
 11
201.6174750287793
 21
131.2349737010505
 31
0.0
  0
LINE
  5
1E1
330
1DB
100
AcDbEntity
  8
3
  6
Continuous
 62
    14
100
AcDbLine
 10
201.6174750287793
 20
131.2349737010505
 30
0.0
 11
200.821349062026
 21
131.2349737010505
 31
0.0
  0
ENDBLK
  5
1DD
330
1DB
100
AcDbEntity
  8
0
100
AcDbBlockEnd
  0
BLOCK
  5
1F9
330
1F8
100
AcDbEntity
  8
0
100
AcDbBlockBegin
  2
*G42
 70
     1
 71
     0
 10
0.0
 20
0.0
 30
0.0
  3
*G42
  1

  0
LINE
  5
1FB
330
1F8
100
AcDbEntity
  8
3
  6
Continuous
 62
    14
100
AcDbLine
 10
196.721349062026
 20
101.4373427341534
 30
0.0
 11
196.721349062026
 21
106.4373427341534
 31
0.0
  0
LINE
  5
1FC
330
1F8
100
AcDbEntity
  8
3
  6
Continuous
 62
    14
100
AcDbLine
 10
196.721349062026
 20
106.4373427341534
 30
0.0
 11
199.221349062026
 21
106.4373427341534
 31
0.0
  0
LINE
  5
1FD
330
1F8
100
AcDbEntity
  8
3
  6
Continuous
 62
    14
100
AcDbLine
 10
199.221349062026
 20
106.4373427341534
 30
0.0
 11
199.221349062026
 21
101.4373427341534
 31
0.0
  0
LINE
  5
1FE
330
1F8
100
AcDbEntity
  8
3
  6
Continuous
 62
    14
100
AcDbLine
 10
199.221349062026
 20
101.4373427341534
 30
0.0
 11
196.721349062026
 21
101.4373427341534
 31
0.0
  0
ENDBLK
  5
1FA
330
1F8
100
AcDbEntity
  8
0
100
AcDbBlockEnd
  0
BLOCK
  5
20D
330
20C
100
AcDbEntity
  8
0
100
AcDbBlockBegin
  2
*G43
 70
     1
 71
     0
 10
0.0
 20
0.0
 30
0.0
  3
*G43
  1

  0
LINE
  5
20F
330
20C
100
AcDbEntity
  8
3
  6
Continuous
 62
    14
100
AcDbLine
 10
200.821349062026
 20
118.5483448049821
 30
0.0
 11
200.821349062026
 21
113.3071592452125
 31
0.0
  0
LINE
  5
210
330
20C
100
AcDbEntity
  8
3
  6
Continuous
 62
    14
100
AcDbLine
 10
200.821349062026
 20
113.3071592452125
 30
0.0
 11
202.0644613701775
 21
113.3071592452125
 31
0.0
  0
LINE
  5
211
330
20C
100
AcDbEntity
  8
3
  6
Continuous
 62
    14
100
AcDbLine
 10
202.0644613701775
 20
113.3071592452125
 30
0.0
 11
202.0644613701775
 21
118.5483448049821
 31
0.0
  0
LINE
  5
212
330
20C
100
AcDbEntity
  8
3
  6
Continuous
 62
    14
100
AcDbLine
 10
202.0644613701775
 20
118.5483448049821
 30
0.0
 11
200.821349062026
 21
118.5483448049821
 31
0.0
  0
ENDBLK
  5
20E
330
20C
100
AcDbEntity
  8
0
100
AcDbBlockEnd
  0
BLOCK
  5
215
330
214
100
AcDbEntity
  8
0
100
AcDbBlockBegin
  2
*G44
 70
     1
 71
     0
 10
0.0
 20
0.0
 30
0.0
  3
*G44
  1

  0
LINE
  5
217
330
214
100
AcDbEntity
  8
3
  6
Continuous
 62
    14
100
AcDbLine
 10
200.821349062026
 20
110.2291988575176
 30
0.0
 11
200.821349062026
 21
104.988013297748
 31
0.0
  0
LINE
  5
218
330
214
100
AcDbEntity
  8
3
  6
Continuous
 62
    14
100
AcDbLine
 10
200.821349062026
 20
104.988013297748
 30
0.0
 11
202.0644613701775
 21
104.988013297748
 31
0.0
  0
LINE
  5
219
330
214
100
AcDbEntity
  8
3
  6
Continuous
 62
    14
100
AcDbLine
 10
202.0644613701775
 20
104.988013297748
 30
0.0
 11
202.0644613701775
 21
110.2291988575176
 31
0.0
  0
LINE
  5
21A
330
214
100
AcDbEntity
  8
3
  6
Continuous
 62
    14
100
AcDbLine
 10
202.0644613701775
 20
110.2291988575176
 30
0.0
 11
200.821349062026
 21
110.2291988575176
 31
0.0
  0
ENDBLK
  5
216
330
214
100
AcDbEntity
  8
0
100
AcDbBlockEnd
  0
BLOCK
  5
225
330
224
100
AcDbEntity
  8
0
100
AcDbBlockBegin
  2
*G45
 70
     1
 71
     0
 10
0.0
 20
0.0
 30
0.0
  3
*G45
  1

  0
LINE
  5
227
330
224
100
AcDbEntity
  8
3
  6
Continuous
 62
    14
100
AcDbLine
 10
97.70659730893651
 20
130.8373427341533
 30
0.0
 11
97.4065973089365
 21
131.1373427341533
 31
0.0
  0
LINE
  5
228
330
224
100
AcDbEntity
  8
3
  6
Continuous
 62
    14
100
AcDbLine
 10
97.4065973089365
 20
131.1373427341533
 30
0.0
 11
95.50659730893652
 21
131.1373427341533
 31
0.0
  0
LINE
  5
229
330
224
100
AcDbEntity
  8
3
  6
Continuous
 62
    14
100
AcDbLine
 10
95.50659730893652
 20
131.1373427341533
 30
0.0
 11
95.20659730893651
 21
130.8373427341533
 31
0.0
  0
LINE
  5
22A
330
224
100
AcDbEntity
  8
3
  6
Continuous
 62
    14
100
AcDbLine
 10
97.70659730893651
 20
130.8373427341533
 30
0.0
 11
97.70659730893651
 21
113.6573427341533
 31
0.0
  0
LINE
  5
22B
330
224
100
AcDbEntity
  8
3
  6
Continuous
 62
    14
100
AcDbLine
 10
97.4065973089365
 20
113.3573427341533
 30
0.0
 11
97.70659730893651
 21
113.6573427341533
 31
0.0
  0
LINE
  5
22C
330
224
100
AcDbEntity
  8
3
  6
Continuous
 62
    14
100
AcDbLine
 10
95.20659730893651
 20
130.8373427341533
 30
0.0
 11
95.20659730893651
 21
113.6573427341533
 31
0.0
  0
LINE
  5
22D
330
224
100
AcDbEntity
  8
3
  6
Continuous
 62
    14
100
AcDbLine
 10
97.4065973089365
 20
113.3573427341533
 30
0.0
 11
95.50659730893652
 21
113.3573427341533
 31
0.0
  0
LINE
  5
22E
330
224
100
AcDbEntity
  8
3
  6
Continuous
 62
    14
100
AcDbLine
 10
95.20659730893651
 20
113.6573427341533
 30
0.0
 11
95.50659730893652
 21
113.3573427341533
 31
0.0
  0
ENDBLK
  5
226
330
224
100
AcDbEntity
  8
0
100
AcDbBlockEnd
  0
BLOCK
  5
24E
330
24D
100
AcDbEntity
  8
0
100
AcDbBlockBegin
  2
Dim1
 70
     0
 71
     0
 10
0.0
 20
0.0
 30
0.0
  3
Dim1
  1

  0
LINE
  5
250
330
24D
100
AcDbEntity
  8
2
  6
Continuous
 62
     5
100
AcDbLine
 10
184.5213490620259
 20
86.85967130214915
 30
0.0
 11
192.2213490620259
 21
86.85967130214915
 31
0.0
  0
LINE
  5
251
330
24D
100
AcDbEntity
  8
2
  6
Continuous
 62
     5
100
AcDbLine
 10
184.5213490620259
 20
84.85967130214915
 30
0.0
 11
184.521349062026
 21
97.87610619469024
 31
0.0
  0
LINE
  5
252
330
24D
100
AcDbEntity
  8
2
  6
Continuous
 62
     5
100
AcDbLine
 10
192.2213490620259
 20
84.85967130214915
 30
0.0
 11
192.221349062026
 21
97.87610619469024
 31
0.0
  0
LINE
  5
253
330
24D
100
AcDbEntity
  8
2
  6
Continuous
 62
     5
100
AcDbLine
 10
184.5213490620259
 20
86.85967130214915
 30
0.0
 11
186.4532007146041
 21
87.37730939235419
 31
0.0
  0
LINE
  5
254
330
24D
100
AcDbEntity
  8
2
  6
Continuous
 62
     5
100
AcDbLine
 10
184.5213490620259
 20
86.85967130214915
 30
0.0
 11
186.4532007146041
 21
86.34203321194411
 31
0.0
  0
LINE
  5
255
330
24D
100
AcDbEntity
  8
2
  6
Continuous
 62
     5
100
AcDbLine
 10
186.4532007146041
 20
87.37730939235419
 30
0.0
 11
186.4532007146041
 21
86.34203321194411
 31
0.0
  0
LINE
  5
256
330
24D
100
AcDbEntity
  8
2
  6
Continuous
 62
     5
100
AcDbLine
 10
185.0043119751705
 20
86.85967130214915
 30
0.0
 11
185.9702378014595
 21
87.11849034725168
 31
0.0
  0
LINE
  5
257
330
24D
100
AcDbEntity
  8
2
  6
Continuous
 62
     5
100
AcDbLine
 10
185.0043119751705
 20
86.85967130214915
 30
0.0
 11
185.9702378014595
 21
86.60085225704663
 31
0.0
  0
LINE
  5
258
330
24D
100
AcDbEntity
  8
2
  6
Continuous
 62
     5
100
AcDbLine
 10
185.9702378014595
 20
87.11849034725168
 30
0.0
 11
185.9702378014595
 21
86.60085225704663
 31
0.0
  0
LINE
  5
259
330
24D
100
AcDbEntity
  8
2
  6
Continuous
 62
     5
100
AcDbLine
 10
192.2213490620259
 20
86.85967130214915
 30
0.0
 11
190.2894974094478
 21
86.34203321194411
 31
0.0
  0
LINE
  5
25A
330
24D
100
AcDbEntity
  8
2
  6
Continuous
 62
     5
100
AcDbLine
 10
192.2213490620259
 20
86.85967130214915
 30
0.0
 11
190.2894974094478
 21
87.3773093923542
 31
0.0
  0
LINE
  5
25B
330
24D
100
AcDbEntity
  8
2
  6
Continuous
 62
     5
100
AcDbLine
 10
190.2894974094478
 20
86.34203321194411
 30
0.0
 11
190.2894974094478
 21
87.3773093923542
 31
0.0
  0
LINE
  5
25C
330
24D
100
AcDbEntity
  8
2
  6
Continuous
 62
     5
100
AcDbLine
 10
191.7383861488814
 20
86.85967130214915
 30
0.0
 11
190.7724603225923
 21
86.60085225704664
 31
0.0
  0
LINE
  5
25D
330
24D
100
AcDbEntity
  8
2
  6
Continuous
 62
     5
100
AcDbLine
 10
191.7383861488814
 20
86.85967130214915
 30
0.0
 11
190.7724603225923
 21
87.11849034725168
 31
0.0
  0
LINE
  5
25E
330
24D
100
AcDbEntity
  8
2
  6
Continuous
 62
     5
100
AcDbLine
 10
190.7724603225923
 20
86.60085225704664
 30
0.0
 11
190.7724603225923
 21
87.11849034725168
 31
0.0
  0
MTEXT
  5
25F
330
24D
100
AcDbEntity
  8
2
  6
Continuous
 62
     5
100
AcDbMText
 10
188.371349062026
 20
88.45967130214915
 30
0.0
 40
3.2
 41
0.0
 71
     8
 72
     1
  1
7.7
 73
     1
 44
1.0
  0
ENDBLK
  5
24F
330
24D
100
AcDbEntity
  8
0
100
AcDbBlockEnd
  0
BLOCK
  5
262
330
261
100
AcDbEntity
  8
0
100
AcDbBlockBegin
  2
Dim2
 70
     0
 71
     0
 10
0.0
 20
0.0
 30
0.0
  3
Dim2
  1

  0
LINE
  5
264
330
261
100
AcDbEntity
  8
2
  6
Continuous
 62
     5
100
AcDbLine
 10
192.2213490620259
 20
86.85967130214915
 30
0.0
 11
199.2213490620259
 21
86.85967130214915
 31
0.0
  0
LINE
  5
265
330
261
100
AcDbEntity
  8
2
  6
Continuous
 62
     5
100
AcDbLine
 10
199.2213490620259
 20
84.85967130214915
 30
0.0
 11
199.221349062026
 21
97.65360303413398
 31
0.0
  0
LINE
  5
266
330
261
100
AcDbEntity
  8
2
  6
Continuous
 62
     5
100
AcDbLine
 10
192.2213490620259
 20
86.85967130214915
 30
0.0
 11
194.1532007146041
 21
87.37730939235419
 31
0.0
  0
LINE
  5
267
330
261
100
AcDbEntity
  8
2
  6
Continuous
 62
     5
100
AcDbLine
 10
192.2213490620259
 20
86.85967130214915
 30
0.0
 11
194.1532007146041
 21
86.34203321194411
 31
0.0
  0
LINE
  5
268
330
261
100
AcDbEntity
  8
2
  6
Continuous
 62
     5
100
AcDbLine
 10
194.1532007146041
 20
87.37730939235419
 30
0.0
 11
194.1532007146041
 21
86.34203321194411
 31
0.0
  0
LINE
  5
269
330
261
100
AcDbEntity
  8
2
  6
Continuous
 62
     5
100
AcDbLine
 10
192.7043119751705
 20
86.85967130214915
 30
0.0
 11
193.6702378014595
 21
87.11849034725168
 31
0.0
  0
LINE
  5
26A
330
261
100
AcDbEntity
  8
2
  6
Continuous
 62
     5
100
AcDbLine
 10
192.7043119751705
 20
86.85967130214915
 30
0.0
 11
193.6702378014595
 21
86.60085225704663
 31
0.0
  0
LINE
  5
26B
330
261
100
AcDbEntity
  8
2
  6
Continuous
 62
     5
100
AcDbLine
 10
193.6702378014595
 20
87.11849034725168
 30
0.0
 11
193.6702378014595
 21
86.60085225704663
 31
0.0
  0
LINE
  5
26C
330
261
100
AcDbEntity
  8
2
  6
Continuous
 62
     5
100
AcDbLine
 10
199.2213490620259
 20
86.85967130214915
 30
0.0
 11
197.2894974094478
 21
86.34203321194411
 31
0.0
  0
LINE
  5
26D
330
261
100
AcDbEntity
  8
2
  6
Continuous
 62
     5
100
AcDbLine
 10
199.2213490620259
 20
86.85967130214915
 30
0.0
 11
197.2894974094478
 21
87.3773093923542
 31
0.0
  0
LINE
  5
26E
330
261
100
AcDbEntity
  8
2
  6
Continuous
 62
     5
100
AcDbLine
 10
197.2894974094478
 20
86.34203321194411
 30
0.0
 11
197.2894974094478
 21
87.3773093923542
 31
0.0
  0
LINE
  5
26F
330
261
100
AcDbEntity
  8
2
  6
Continuous
 62
     5
100
AcDbLine
 10
198.7383861488814
 20
86.85967130214915
 30
0.0
 11
197.7724603225923
 21
86.60085225704664
 31
0.0
  0
LINE
  5
270
330
261
100
AcDbEntity
  8
2
  6
Continuous
 62
     5
100
AcDbLine
 10
198.7383861488814
 20
86.85967130214915
 30
0.0
 11
197.7724603225923
 21
87.11849034725168
 31
0.0
  0
LINE
  5
271
330
261
100
AcDbEntity
  8
2
  6
Continuous
 62
     5
100
AcDbLine
 10
197.7724603225923
 20
86.60085225704664
 30
0.0
 11
197.7724603225923
 21
87.11849034725168
 31
0.0
  0
MTEXT
  5
272
330
261
100
AcDbEntity
  8
2
  6
Continuous
 62
     5
100
AcDbMText
 10
195.721349062026
 20
88.45967130214915
 30
0.0
 40
3.2
 41
0.0
 71
     8
 72
     1
  1
7
 73
     1
 44
1.0
  0
ENDBLK
  5
263
330
261
100
AcDbEntity
  8
0
100
AcDbBlockEnd
  0
BLOCK
  5
275
330
274
100
AcDbEntity
  8
0
100
AcDbBlockBegin
  2
Dim3
 70
     0
 71
     0
 10
0.0
 20
0.0
 30
0.0
  3
Dim3
  1

  0
LINE
  5
277
330
274
100
AcDbEntity
  8
2
  6
Continuous
 62
     5
100
AcDbLine
 10
199.2213490620259
 20
86.85967130214915
 30
0.0
 11
200.8213490620259
 21
86.85967130214915
 31
0.0
  0
LINE
  5
278
330
274
100
AcDbEntity
  8
2
  6
Continuous
 62
     5
100
AcDbLine
 10
200.8213490620259
 20
84.85967130214915
 30
0.0
 11
200.821349062026
 21
97.38734273415326
 31
0.0
  0
LINE
  5
279
330
274
100
AcDbEntity
  8
2
  6
Continuous
 62
     5
100
AcDbLine
 10
199.2213490620259
 20
86.85967130214915
 30
0.0
 11
201.1532007146041
 21
87.37730939235419
 31
0.0
  0
LINE
  5
27A
330
274
100
AcDbEntity
  8
2
  6
Continuous
 62
     5
100
AcDbLine
 10
199.2213490620259
 20
86.85967130214915
 30
0.0
 11
201.1532007146041
 21
86.34203321194411
 31
0.0
  0
LINE
  5
27B
330
274
100
AcDbEntity
  8
2
  6
Continuous
 62
     5
100
AcDbLine
 10
201.1532007146041
 20
87.37730939235419
 30
0.0
 11
201.1532007146041
 21
86.34203321194411
 31
0.0
  0
LINE
  5
27C
330
274
100
AcDbEntity
  8
2
  6
Continuous
 62
     5
100
AcDbLine
 10
199.7043119751705
 20
86.85967130214915
 30
0.0
 11
200.6702378014595
 21
87.11849034725168
 31
0.0
  0
LINE
  5
27D
330
274
100
AcDbEntity
  8
2
  6
Continuous
 62
     5
100
AcDbLine
 10
199.7043119751705
 20
86.85967130214915
 30
0.0
 11
200.6702378014595
 21
86.60085225704663
 31
0.0
  0
LINE
  5
27E
330
274
100
AcDbEntity
  8
2
  6
Continuous
 62
     5
100
AcDbLine
 10
200.6702378014595
 20
87.11849034725168
 30
0.0
 11
200.6702378014595
 21
86.60085225704663
 31
0.0
  0
LINE
  5
27F
330
274
100
AcDbEntity
  8
2
  6
Continuous
 62
     5
100
AcDbLine
 10
200.8213490620259
 20
86.85967130214915
 30
0.0
 11
198.8894974094478
 21
86.34203321194411
 31
0.0
  0
LINE
  5
280
330
274
100
AcDbEntity
  8
2
  6
Continuous
 62
     5
100
AcDbLine
 10
200.8213490620259
 20
86.85967130214915
 30
0.0
 11
198.8894974094478
 21
87.3773093923542
 31
0.0
  0
LINE
  5
281
330
274
100
AcDbEntity
  8
2
  6
Continuous
 62
     5
100
AcDbLine
 10
198.8894974094478
 20
86.34203321194411
 30
0.0
 11
198.8894974094478
 21
87.3773093923542
 31
0.0
  0
LINE
  5
282
330
274
100
AcDbEntity
  8
2
  6
Continuous
 62
     5
100
AcDbLine
 10
200.3383861488814
 20
86.85967130214915
 30
0.0
 11
199.3724603225923
 21
86.60085225704664
 31
0.0
  0
LINE
  5
283
330
274
100
AcDbEntity
  8
2
  6
Continuous
 62
     5
100
AcDbLine
 10
200.3383861488814
 20
86.85967130214915
 30
0.0
 11
199.3724603225923
 21
87.11849034725168
 31
0.0
  0
LINE
  5
284
330
274
100
AcDbEntity
  8
2
  6
Continuous
 62
     5
100
AcDbLine
 10
199.3724603225923
 20
86.60085225704664
 30
0.0
 11
199.3724603225923
 21
87.11849034725168
 31
0.0
  0
CIRCLE
  5
285
330
274
100
AcDbEntity
  8
2
  6
Continuous
 62
     5
100
AcDbCircle
 10
200.0213490620259
 20
86.85967130214915
 30
0.0
 40
0.3
  0
CIRCLE
  5
286
330
274
100
AcDbEntity
  8
2
  6
Continuous
 62
     5
100
AcDbCircle
 10
200.0213490620259
 20
86.85967130214915
 30
0.0
 40
0.15
  0
POLYLINE
  5
287
330
274
100
AcDbEntity
  8
2
  6
Continuous
 62
     5
100
AcDb2dPolyline
 66
     1
 10
0.0
 20
0.0
 30
0.0
  0
VERTEX
  5
289
330
287
100
AcDbEntity
  8
2
  6
Continuous
 62
     5
100
AcDbVertex
100
AcDb2dVertex
 10
200.0213490620259
 20
86.85967130214915
 30
0.0
  0
VERTEX
  5
28A
330
287
100
AcDbEntity
  8
2
  6
Continuous
 62
     5
100
AcDbVertex
100
AcDb2dVertex
 10
200.0213490620259
 20
81.25967130214916
 30
0.0
  0
VERTEX
  5
28B
330
287
100
AcDbEntity
  8
2
  6
Continuous
 62
     5
100
AcDbVertex
100
AcDb2dVertex
 10
205.2713490620259
 20
81.25967130214916
 30
0.0
  0
SEQEND
  5
288
330
287
100
AcDbEntity
  8
2
  6
Continuous
  0
MTEXT
  5
28C
330
274
100
AcDbEntity
  8
2
  6
Continuous
 62
     5
100
AcDbMText
 10
202.6463490620259
 20
82.85967130214915
 30
0.0
 40
3.2
 41
0.0
 71
     8
 72
     1
  1
1.6
 73
     1
 44
1.0
  0
ENDBLK
  5
276
330
274
100
AcDbEntity
  8
0
100
AcDbBlockEnd
  0
BLOCK
  5
28F
330
28E
100
AcDbEntity
  8
0
100
AcDbBlockBegin
  2
Dim4
 70
     0
 71
     0
 10
0.0
 20
0.0
 30
0.0
  3
Dim4
  1

  0
LINE
  5
291
330
28E
100
AcDbEntity
  8
2
  6
Continuous
 62
     5
100
AcDbLine
 10
200.8213490620259
 20
86.85967130214915
 30
0.0
 11
205.3213490620259
 21
86.85967130214915
 31
0.0
  0
LINE
  5
292
330
28E
100
AcDbEntity
  8
2
  6
Continuous
 62
     5
100
AcDbLine
 10
205.3213490620259
 20
84.85967130214915
 30
0.0
 11
205.321349062026
 21
94.87231352718075
 31
0.0
  0
LINE
  5
293
330
28E
100
AcDbEntity
  8
2
  6
Continuous
 62
     5
100
AcDbLine
 10
200.8213490620259
 20
86.85967130214915
 30
0.0
 11
202.7532007146041
 21
87.37730939235419
 31
0.0
  0
LINE
  5
294
330
28E
100
AcDbEntity
  8
2
  6
Continuous
 62
     5
100
AcDbLine
 10
200.8213490620259
 20
86.85967130214915
 30
0.0
 11
202.7532007146041
 21
86.34203321194411
 31
0.0
  0
LINE
  5
295
330
28E
100
AcDbEntity
  8
2
  6
Continuous
 62
     5
100
AcDbLine
 10
202.7532007146041
 20
87.37730939235419
 30
0.0
 11
202.7532007146041
 21
86.34203321194411
 31
0.0
  0
LINE
  5
296
330
28E
100
AcDbEntity
  8
2
  6
Continuous
 62
     5
100
AcDbLine
 10
201.3043119751705
 20
86.85967130214915
 30
0.0
 11
202.2702378014596
 21
87.11849034725168
 31
0.0
  0
LINE
  5
297
330
28E
100
AcDbEntity
  8
2
  6
Continuous
 62
     5
100
AcDbLine
 10
201.3043119751705
 20
86.85967130214915
 30
0.0
 11
202.2702378014596
 21
86.60085225704663
 31
0.0
  0
LINE
  5
298
330
28E
100
AcDbEntity
  8
2
  6
Continuous
 62
     5
100
AcDbLine
 10
202.2702378014596
 20
87.11849034725168
 30
0.0
 11
202.2702378014596
 21
86.60085225704663
 31
0.0
  0
LINE
  5
299
330
28E
100
AcDbEntity
  8
2
  6
Continuous
 62
     5
100
AcDbLine
 10
205.3213490620259
 20
86.85967130214915
 30
0.0
 11
203.3894974094478
 21
86.34203321194411
 31
0.0
  0
LINE
  5
29A
330
28E
100
AcDbEntity
  8
2
  6
Continuous
 62
     5
100
AcDbLine
 10
205.3213490620259
 20
86.85967130214915
 30
0.0
 11
203.3894974094478
 21
87.3773093923542
 31
0.0
  0
LINE
  5
29B
330
28E
100
AcDbEntity
  8
2
  6
Continuous
 62
     5
100
AcDbLine
 10
203.3894974094478
 20
86.34203321194411
 30
0.0
 11
203.3894974094478
 21
87.3773093923542
 31
0.0
  0
LINE
  5
29C
330
28E
100
AcDbEntity
  8
2
  6
Continuous
 62
     5
100
AcDbLine
 10
204.8383861488814
 20
86.85967130214915
 30
0.0
 11
203.8724603225923
 21
86.60085225704664
 31
0.0
  0
LINE
  5
29D
330
28E
100
AcDbEntity
  8
2
  6
Continuous
 62
     5
100
AcDbLine
 10
204.8383861488814
 20
86.85967130214915
 30
0.0
 11
203.8724603225923
 21
87.11849034725168
 31
0.0
  0
LINE
  5
29E
330
28E
100
AcDbEntity
  8
2
  6
Continuous
 62
     5
100
AcDbLine
 10
203.8724603225923
 20
86.60085225704664
 30
0.0
 11
203.8724603225923
 21
87.11849034725168
 31
0.0
  0
MTEXT
  5
29F
330
28E
100
AcDbEntity
  8
2
  6
Continuous
 62
     5
100
AcDbMText
 10
203.071349062026
 20
88.45967130214915
 30
0.0
 40
3.2
 41
0.0
 71
     8
 72
     1
  1
4.5
 73
     1
 44
1.0
  0
ENDBLK
  5
290
330
28E
100
AcDbEntity
  8
0
100
AcDbBlockEnd
  0
BLOCK
  5
2A4
330
2A3
100
AcDbEntity
  8
0
100
AcDbBlockBegin
  2
Dim5
 70
     0
 71
     0
 10
0.0
 20
0.0
 30
0.0
  3
Dim5
  1

  0
LINE
  5
2A6
330
2A3
100
AcDbEntity
  8
2
  6
Continuous
 62
     5
100
AcDbLine
 10
76.99659730893633
 20
84.48865382800484
 30
0.0
 11
98.99659730893639
 21
84.48865382800484
 31
0.0
  0
LINE
  5
2A7
330
2A3
100
AcDbEntity
  8
2
  6
Continuous
 62
     5
100
AcDbLine
 10
76.99659730893632
 20
82.48865382800484
 30
0.0
 11
76.9965973089364
 21
92.69820471208038
 31
0.0
  0
LINE
  5
2A8
330
2A3
100
AcDbEntity
  8
2
  6
Continuous
 62
     5
100
AcDbLine
 10
98.99659730893636
 20
82.48865382800484
 30
0.0
 11
98.99659730893647
 21
93.09496961747848
 31
0.0
  0
LINE
  5
2A9
330
2A3
100
AcDbEntity
  8
2
  6
Continuous
 62
     5
100
AcDbLine
 10
76.99659730893633
 20
84.48865382800484
 30
0.0
 11
78.92844896151446
 21
85.00629191820988
 31
0.0
  0
LINE
  5
2AA
330
2A3
100
AcDbEntity
  8
2
  6
Continuous
 62
     5
100
AcDbLine
 10
76.99659730893633
 20
84.48865382800484
 30
0.0
 11
78.92844896151446
 21
83.9710157377998
 31
0.0
  0
LINE
  5
2AB
330
2A3
100
AcDbEntity
  8
2
  6
Continuous
 62
     5
100
AcDbLine
 10
78.92844896151446
 20
85.00629191820988
 30
0.0
 11
78.92844896151446
 21
83.9710157377998
 31
0.0
  0
LINE
  5
2AC
330
2A3
100
AcDbEntity
  8
2
  6
Continuous
 62
     5
100
AcDbLine
 10
77.47956022208086
 20
84.48865382800484
 30
0.0
 11
78.44548604836993
 21
84.74747287310737
 31
0.0
  0
LINE
  5
2AD
330
2A3
100
AcDbEntity
  8
2
  6
Continuous
 62
     5
100
AcDbLine
 10
77.47956022208086
 20
84.48865382800484
 30
0.0
 11
78.44548604836993
 21
84.22983478290232
 31
0.0
  0
LINE
  5
2AE
330
2A3
100
AcDbEntity
  8
2
  6
Continuous
 62
     5
100
AcDbLine
 10
78.44548604836993
 20
84.74747287310737
 30
0.0
 11
78.44548604836993
 21
84.22983478290232
 31
0.0
  0
LINE
  5
2AF
330
2A3
100
AcDbEntity
  8
2
  6
Continuous
 62
     5
100
AcDbLine
 10
98.99659730893639
 20
84.48865382800484
 30
0.0
 11
97.06474565635826
 21
83.9710157377998
 31
0.0
  0
LINE
  5
2B0
330
2A3
100
AcDbEntity
  8
2
  6
Continuous
 62
     5
100
AcDbLine
 10
98.99659730893639
 20
84.48865382800484
 30
0.0
 11
97.06474565635826
 21
85.0062919182099
 31
0.0
  0
LINE
  5
2B1
330
2A3
100
AcDbEntity
  8
2
  6
Continuous
 62
     5
100
AcDbLine
 10
97.06474565635826
 20
83.9710157377998
 30
0.0
 11
97.06474565635826
 21
85.0062919182099
 31
0.0
  0
LINE
  5
2B2
330
2A3
100
AcDbEntity
  8
2
  6
Continuous
 62
     5
100
AcDbLine
 10
98.51363439579185
 20
84.48865382800484
 30
0.0
 11
97.54770856950279
 21
84.22983478290233
 31
0.0
  0
LINE
  5
2B3
330
2A3
100
AcDbEntity
  8
2
  6
Continuous
 62
     5
100
AcDbLine
 10
98.51363439579185
 20
84.48865382800484
 30
0.0
 11
97.54770856950279
 21
84.74747287310737
 31
0.0
  0
LINE
  5
2B4
330
2A3
100
AcDbEntity
  8
2
  6
Continuous
 62
     5
100
AcDbLine
 10
97.54770856950279
 20
84.22983478290233
 30
0.0
 11
97.54770856950279
 21
84.74747287310737
 31
0.0
  0
MTEXT
  5
2B5
330
2A3
100
AcDbEntity
  8
2
  6
Continuous
 62
     5
100
AcDbMText
 10
87.38439026504908
 20
86.08865382800484
 30
0.0
 40
3.2
 41
0.0
 71
     8
 72
     1
  1
(22)
 73
     1
 44
1.0
  0
ENDBLK
  5
2A5
330
2A3
100
AcDbEntity
  8
0
100
AcDbBlockEnd
  0
BLOCK
  5
2B8
330
2B7
100
AcDbEntity
  8
0
100
AcDbBlockBegin
  2
Dim6
 70
     0
 71
     0
 10
0.0
 20
0.0
 30
0.0
  3
Dim6
  1

  0
LINE
  5
2BA
330
2B7
100
AcDbEntity
  8
2
  6
Continuous
 62
     5
100
AcDbLine
 10
55.99659730893633
 20
84.46163628414513
 30
0.0
 11
76.99659730893633
 21
84.46163628414513
 31
0.0
  0
LINE
  5
2BB
330
2B7
100
AcDbEntity
  8
2
  6
Continuous
 62
     5
100
AcDbLine
 10
55.99659730893632
 20
82.46163628414513
 30
0.0
 11
55.99659730893637
 21
91.9821041204024
 31
0.0
  0
LINE
  5
2BC
330
2B7
100
AcDbEntity
  8
2
  6
Continuous
 62
     5
100
AcDbLine
 10
76.99659730893632
 20
82.46163628414513
 30
0.0
 11
76.9965973089364
 21
93.7873427341533
 31
0.0
  0
LINE
  5
2BD
330
2B7
100
AcDbEntity
  8
2
  6
Continuous
 62
     5
100
AcDbLine
 10
55.99659730893633
 20
84.46163628414513
 30
0.0
 11
57.92844896151447
 21
84.97927437435017
 31
0.0
  0
LINE
  5
2BE
330
2B7
100
AcDbEntity
  8
2
  6
Continuous
 62
     5
100
AcDbLine
 10
55.99659730893633
 20
84.46163628414513
 30
0.0
 11
57.92844896151447
 21
83.94399819394009
 31
0.0
  0
LINE
  5
2BF
330
2B7
100
AcDbEntity
  8
2
  6
Continuous
 62
     5
100
AcDbLine
 10
57.92844896151447
 20
84.97927437435017
 30
0.0
 11
57.92844896151447
 21
83.94399819394009
 31
0.0
  0
LINE
  5
2C0
330
2B7
100
AcDbEntity
  8
2
  6
Continuous
 62
     5
100
AcDbLine
 10
56.47956022208086
 20
84.46163628414513
 30
0.0
 11
57.44548604836993
 21
84.72045532924766
 31
0.0
  0
LINE
  5
2C1
330
2B7
100
AcDbEntity
  8
2
  6
Continuous
 62
     5
100
AcDbLine
 10
56.47956022208086
 20
84.46163628414513
 30
0.0
 11
57.44548604836993
 21
84.2028172390426
 31
0.0
  0
LINE
  5
2C2
330
2B7
100
AcDbEntity
  8
2
  6
Continuous
 62
     5
100
AcDbLine
 10
57.44548604836993
 20
84.72045532924766
 30
0.0
 11
57.44548604836993
 21
84.2028172390426
 31
0.0
  0
LINE
  5
2C3
330
2B7
100
AcDbEntity
  8
2
  6
Continuous
 62
     5
100
AcDbLine
 10
76.99659730893633
 20
84.46163628414513
 30
0.0
 11
75.0647456563582
 21
83.94399819394009
 31
0.0
  0
LINE
  5
2C4
330
2B7
100
AcDbEntity
  8
2
  6
Continuous
 62
     5
100
AcDbLine
 10
76.99659730893633
 20
84.46163628414513
 30
0.0
 11
75.0647456563582
 21
84.97927437435018
 31
0.0
  0
LINE
  5
2C5
330
2B7
100
AcDbEntity
  8
2
  6
Continuous
 62
     5
100
AcDbLine
 10
75.0647456563582
 20
83.94399819394009
 30
0.0
 11
75.0647456563582
 21
84.97927437435018
 31
0.0
  0
LINE
  5
2C6
330
2B7
100
AcDbEntity
  8
2
  6
Continuous
 62
     5
100
AcDbLine
 10
76.5136343957918
 20
84.46163628414513
 30
0.0
 11
75.54770856950273
 21
84.20281723904262
 31
0.0
  0
LINE
  5
2C7
330
2B7
100
AcDbEntity
  8
2
  6
Continuous
 62
     5
100
AcDbLine
 10
76.5136343957918
 20
84.46163628414513
 30
0.0
 11
75.54770856950273
 21
84.72045532924766
 31
0.0
  0
LINE
  5
2C8
330
2B7
100
AcDbEntity
  8
2
  6
Continuous
 62
     5
100
AcDbLine
 10
75.54770856950273
 20
84.20281723904262
 30
0.0
 11
75.54770856950273
 21
84.72045532924766
 31
0.0
  0
MTEXT
  5
2C9
330
2B7
100
AcDbEntity
  8
2
  6
Continuous
 62
     5
100
AcDbMText
 10
67.44736703776789
 20
86.06163628414512
 30
0.0
 40
3.2
 41
0.0
 71
     8
 72
     1
  1
21
 73
     1
 44
1.0
  0
ENDBLK
  5
2B9
330
2B7
100
AcDbEntity
  8
0
100
AcDbBlockEnd
  0
BLOCK
  5
2CC
330
2CB
100
AcDbEntity
  8
0
100
AcDbBlockBegin
  2
Dim7
 70
     0
 71
     0
 10
0.0
 20
0.0
 30
0.0
  3
Dim7
  1

  0
LINE
  5
2CE
330
2CB
100
AcDbEntity
  8
2
  6
Continuous
 62
     5
100
AcDbLine
 10
43.78580471758137
 20
140.4373427341534
 30
0.0
 11
43.78580471758146
 21
96.43734273415342
 31
0.0
  0
LINE
  5
2CF
330
2CB
100
AcDbEntity
  8
2
  6
Continuous
 62
     5
100
AcDbLine
 10
41.78580471758137
 20
140.4373427341534
 30
0.0
 11
72.99659730893642
 21
140.4373427341532
 31
0.0
  0
LINE
  5
2D0
330
2CB
100
AcDbEntity
  8
2
  6
Continuous
 62
     5
100
AcDbLine
 10
41.78580471758146
 20
96.43734273415343
 30
0.0
 11
74.34659730893641
 21
96.43734273415332
 31
0.0
  0
LINE
  5
2D1
330
2CB
100
AcDbEntity
  8
2
  6
Continuous
 62
     5
100
AcDbLine
 10
43.78580471758137
 20
140.4373427341534
 30
0.0
 11
44.30344280778642
 21
138.5054910815752
 31
0.0
  0
LINE
  5
2D2
330
2CB
100
AcDbEntity
  8
2
  6
Continuous
 62
     5
100
AcDbLine
 10
43.78580471758137
 20
140.4373427341534
 30
0.0
 11
43.26816662737633
 21
138.5054910815752
 31
0.0
  0
LINE
  5
2D3
330
2CB
100
AcDbEntity
  8
2
  6
Continuous
 62
     5
100
AcDbLine
 10
44.30344280778642
 20
138.5054910815752
 30
0.0
 11
43.26816662737633
 21
138.5054910815752
 31
0.0
  0
LINE
  5
2D4
330
2CB
100
AcDbEntity
  8
2
  6
Continuous
 62
     5
100
AcDbLine
 10
43.78580471758137
 20
139.9543798210088
 30
0.0
 11
44.04462376268389
 21
138.9884539947197
 31
0.0
  0
LINE
  5
2D5
330
2CB
100
AcDbEntity
  8
2
  6
Continuous
 62
     5
100
AcDbLine
 10
43.78580471758137
 20
139.9543798210088
 30
0.0
 11
43.52698567247885
 21
138.9884539947197
 31
0.0
  0
LINE
  5
2D6
330
2CB
100
AcDbEntity
  8
2
  6
Continuous
 62
     5
100
AcDbLine
 10
44.04462376268389
 20
138.9884539947197
 30
0.0
 11
43.52698567247885
 21
138.9884539947197
 31
0.0
  0
LINE
  5
2D7
330
2CB
100
AcDbEntity
  8
2
  6
Continuous
 62
     5
100
AcDbLine
 10
43.78580471758146
 20
96.43734273415342
 30
0.0
 11
43.26816662737641
 21
98.36919438673155
 31
0.0
  0
LINE
  5
2D8
330
2CB
100
AcDbEntity
  8
2
  6
Continuous
 62
     5
100
AcDbLine
 10
43.78580471758146
 20
96.43734273415342
 30
0.0
 11
44.3034428077865
 21
98.36919438673155
 31
0.0
  0
LINE
  5
2D9
330
2CB
100
AcDbEntity
  8
2
  6
Continuous
 62
     5
100
AcDbLine
 10
43.26816662737641
 20
98.36919438673155
 30
0.0
 11
44.3034428077865
 21
98.36919438673155
 31
0.0
  0
LINE
  5
2DA
330
2CB
100
AcDbEntity
  8
2
  6
Continuous
 62
     5
100
AcDbLine
 10
43.78580471758146
 20
96.92030564729795
 30
0.0
 11
43.52698567247894
 21
97.88623147358702
 31
0.0
  0
LINE
  5
2DB
330
2CB
100
AcDbEntity
  8
2
  6
Continuous
 62
     5
100
AcDbLine
 10
43.78580471758146
 20
96.92030564729795
 30
0.0
 11
44.04462376268398
 21
97.88623147358702
 31
0.0
  0
LINE
  5
2DC
330
2CB
100
AcDbEntity
  8
2
  6
Continuous
 62
     5
100
AcDbLine
 10
43.52698567247894
 20
97.88623147358702
 30
0.0
 11
44.04462376268398
 21
97.88623147358702
 31
0.0
  0
MTEXT
  5
2DD
330
2CB
100
AcDbEntity
  8
2
  6
Continuous
 62
     5
100
AcDbMText
 10
42.18580471758141
 20
118.4416149888641
 30
0.0
 40
3.2
 41
0.0
 71
     8
 72
     1
  1
44
 11
1.393499969507555E-15
 21
1.0
 31
0.0
 73
     1
 44
1.0
  0
ENDBLK
  5
2CD
330
2CB
100
AcDbEntity
  8
0
100
AcDbBlockEnd
  0
BLOCK
  5
2E0
330
2DF
100
AcDbEntity
  8
0
100
AcDbBlockBegin
  2
Dim8
 70
     0
 71
     0
 10
0.0
 20
0.0
 30
0.0
  3
Dim8
  1

  0
LINE
  5
2E2
330
2DF
100
AcDbEntity
  8
2
  6
Continuous
 62
     5
100
AcDbLine
 10
97.10810310319154
 20
143.4445938792691
 30
0.0
 11
98.19201826743652
 21
145.1254055631647
 31
0.0
  0
LINE
  5
2E3
330
2DF
100
AcDbEntity
  8
2
  6
Continuous
 62
     5
100
AcDbLine
 10
97.10810310319154
 20
143.4445938792691
 30
0.0
 11
98.88720701292264
 21
144.3582619143779
 31
0.0
  0
LINE
  5
2E4
330
2DF
100
AcDbEntity
  8
2
  6
Continuous
 62
     5
100
AcDbLine
 10
98.19201826743652
 20
145.1254055631647
 30
0.0
 11
98.88720701292264
 21
144.3582619143779
 31
0.0
  0
LINE
  5
2E5
330
2DF
100
AcDbEntity
  8
2
  6
Continuous
 62
     5
100
AcDbLine
 10
97.46598048743856
 20
143.7689038441447
 30
0.0
 11
98.00793806956105
 21
144.6093096860924
 31
0.0
  0
LINE
  5
2E6
330
2DF
100
AcDbEntity
  8
2
  6
Continuous
 62
     5
100
AcDbLine
 10
97.46598048743856
 20
143.7689038441447
 30
0.0
 11
98.35553244230411
 21
144.2257378616991
 31
0.0
  0
LINE
  5
2E7
330
2DF
100
AcDbEntity
  8
2
  6
Continuous
 62
     5
100
AcDbLine
 10
98.00793806956105
 20
144.6093096860924
 30
0.0
 11
98.35553244230411
 21
144.2257378616991
 31
0.0
  0
POLYLINE
  5
2E8
330
2DF
100
AcDbEntity
  8
2
  6
Continuous
 62
     5
100
AcDb2dPolyline
 66
     1
 10
0.0
 20
0.0
 30
0.0
  0
VERTEX
  5
2EA
330
2E8
100
AcDbEntity
  8
2
  6
Continuous
 62
     5
100
AcDbVertex
100
AcDb2dVertex
 10
97.10810310319154
 20
143.4445938792691
 30
0.0
  0
VERTEX
  5
2EB
330
2E8
100
AcDbEntity
  8
2
  6
Continuous
 62
     5
100
AcDbVertex
100
AcDb2dVertex
 10
106.8777235983823
 20
152.2978643543204
 30
0.0
  0
VERTEX
  5
2EC
330
2E8
100
AcDbEntity
  8
2
  6
Continuous
 62
     5
100
AcDbVertex
100
AcDb2dVertex
 10
116.3091271071542
 20
152.2978643543204
 30
0.0
  0
SEQEND
  5
2E9
330
2E8
100
AcDbEntity
  8
2
  6
Continuous
  0
MTEXT
  5
2ED
330
2DF
100
AcDbEntity
  8
2
  6
Continuous
 62
     5
100
AcDbMText
 10
111.9341271071542
 20
153.8978643543203
 30
0.0
 40
3.2
 41
0.0
 71
     8
 72
     1
  1
4-φ3
 73
     1
 44
1.0
  0
ENDBLK
  5
2E1
330
2DF
100
AcDbEntity
  8
0
100
AcDbBlockEnd
  0
BLOCK
  5
2F0
330
2EF
100
AcDbEntity
  8
0
100
AcDbBlockBegin
  2
Dim9
 70
     0
 71
     0
 10
0.0
 20
0.0
 30
0.0
  3
Dim9
  1

  0
LINE
  5
2F2
330
2EF
100
AcDbEntity
  8
2
  6
Continuous
 62
     5
100
AcDbLine
 10
51.25056342182684
 20
137.4373427341534
 30
0.0
 11
51.2505634218269
 21
99.4373427341533
 31
0.0
  0
LINE
  5
2F3
330
2EF
100
AcDbEntity
  8
2
  6
Continuous
 62
     5
100
AcDbLine
 10
49.25056342182684
 20
137.4373427341534
 30
0.0
 11
55.99659730893639
 21
137.4373427341533
 31
0.0
  0
LINE
  5
2F4
330
2EF
100
AcDbEntity
  8
2
  6
Continuous
 62
     5
100
AcDbLine
 10
49.2505634218269
 20
99.4373427341533
 30
0.0
 11
54.49659730893639
 21
99.43734273415329
 31
0.0
  0
LINE
  5
2F5
330
2EF
100
AcDbEntity
  8
2
  6
Continuous
 62
     5
100
AcDbLine
 10
51.25056342182684
 20
137.4373427341534
 30
0.0
 11
51.76820151203188
 21
135.5054910815752
 31
0.0
  0
LINE
  5
2F6
330
2EF
100
AcDbEntity
  8
2
  6
Continuous
 62
     5
100
AcDbLine
 10
51.25056342182684
 20
137.4373427341534
 30
0.0
 11
50.7329253316218
 21
135.5054910815752
 31
0.0
  0
LINE
  5
2F7
330
2EF
100
AcDbEntity
  8
2
  6
Continuous
 62
     5
100
AcDbLine
 10
51.76820151203188
 20
135.5054910815752
 30
0.0
 11
50.7329253316218
 21
135.5054910815752
 31
0.0
  0
LINE
  5
2F8
330
2EF
100
AcDbEntity
  8
2
  6
Continuous
 62
     5
100
AcDbLine
 10
51.25056342182684
 20
136.9543798210088
 30
0.0
 11
51.50938246692936
 21
135.9884539947197
 31
0.0
  0
LINE
  5
2F9
330
2EF
100
AcDbEntity
  8
2
  6
Continuous
 62
     5
100
AcDbLine
 10
51.25056342182684
 20
136.9543798210088
 30
0.0
 11
50.99174437672432
 21
135.9884539947197
 31
0.0
  0
LINE
  5
2FA
330
2EF
100
AcDbEntity
  8
2
  6
Continuous
 62
     5
100
AcDbLine
 10
51.50938246692936
 20
135.9884539947197
 30
0.0
 11
50.99174437672432
 21
135.9884539947197
 31
0.0
  0
LINE
  5
2FB
330
2EF
100
AcDbEntity
  8
2
  6
Continuous
 62
     5
100
AcDbLine
 10
51.2505634218269
 20
99.4373427341533
 30
0.0
 11
50.73292533162186
 21
101.3691943867314
 31
0.0
  0
LINE
  5
2FC
330
2EF
100
AcDbEntity
  8
2
  6
Continuous
 62
     5
100
AcDbLine
 10
51.2505634218269
 20
99.4373427341533
 30
0.0
 11
51.76820151203194
 21
101.3691943867314
 31
0.0
  0
LINE
  5
2FD
330
2EF
100
AcDbEntity
  8
2
  6
Continuous
 62
     5
100
AcDbLine
 10
50.73292533162186
 20
101.3691943867314
 30
0.0
 11
51.76820151203194
 21
101.3691943867314
 31
0.0
  0
LINE
  5
2FE
330
2EF
100
AcDbEntity
  8
2
  6
Continuous
 62
     5
100
AcDbLine
 10
51.2505634218269
 20
99.92030564729784
 30
0.0
 11
50.99174437672438
 21
100.8862314735869
 31
0.0
  0
LINE
  5
2FF
330
2EF
100
AcDbEntity
  8
2
  6
Continuous
 62
     5
100
AcDbLine
 10
51.2505634218269
 20
99.92030564729784
 30
0.0
 11
51.50938246692942
 21
100.8862314735869
 31
0.0
  0
LINE
  5
300
330
2EF
100
AcDbEntity
  8
2
  6
Continuous
 62
     5
100
AcDbLine
 10
50.99174437672438
 20
100.8862314735869
 30
0.0
 11
51.50938246692942
 21
100.8862314735869
 31
0.0
  0
MTEXT
  5
301
330
2EF
100
AcDbEntity
  8
2
  6
Continuous
 62
     5
100
AcDbMText
 10
49.65056342182687
 20
118.5307233536708
 30
0.0
 40
3.2
 41
0.0
 71
     8
 72
     1
  1
38
 11
2.059633784282649E-15
 21
1.0
 31
0.0
 73
     1
 44
1.0
  0
ENDBLK
  5
2F1
330
2EF
100
AcDbEntity
  8
0
100
AcDbBlockEnd
  0
BLOCK
  5
304
330
303
100
AcDbEntity
  8
0
100
AcDbBlockBegin
  2
Dim10
 70
     0
 71
     0
 10
0.0
 20
0.0
 30
0.0
  3
Dim10
  1

  0
LINE
  5
306
330
303
100
AcDbEntity
  8
2
  6
Continuous
 62
     5
100
AcDbLine
 10
55.99659730893633
 20
67.4048226458036
 30
0.0
 11
98.99659730893644
 21
67.4048226458036
 31
0.0
  0
LINE
  5
307
330
303
100
AcDbEntity
  8
2
  6
Continuous
 62
     5
100
AcDbLine
 10
55.99659730893633
 20
65.4048226458036
 30
0.0
 11
55.99659730893639
 21
105.8385068563299
 31
0.0
  0
LINE
  5
308
330
303
100
AcDbEntity
  8
2
  6
Continuous
 62
     5
100
AcDbLine
 10
98.99659730893644
 20
65.4048226458036
 30
0.0
 11
98.9965973089365
 21
106.116401593172
 31
0.0
  0
LINE
  5
309
330
303
100
AcDbEntity
  8
2
  6
Continuous
 62
     5
100
AcDbLine
 10
55.99659730893633
 20
67.4048226458036
 30
0.0
 11
57.92844896151447
 21
67.92246073600865
 31
0.0
  0
LINE
  5
30A
330
303
100
AcDbEntity
  8
2
  6
Continuous
 62
     5
100
AcDbLine
 10
55.99659730893633
 20
67.4048226458036
 30
0.0
 11
57.92844896151447
 21
66.88718455559857
 31
0.0
  0
LINE
  5
30B
330
303
100
AcDbEntity
  8
2
  6
Continuous
 62
     5
100
AcDbLine
 10
57.92844896151447
 20
67.92246073600865
 30
0.0
 11
57.92844896151447
 21
66.88718455559857
 31
0.0
  0
LINE
  5
30C
330
303
100
AcDbEntity
  8
2
  6
Continuous
 62
     5
100
AcDbLine
 10
56.47956022208086
 20
67.4048226458036
 30
0.0
 11
57.44548604836993
 21
67.66364169090613
 31
0.0
  0
LINE
  5
30D
330
303
100
AcDbEntity
  8
2
  6
Continuous
 62
     5
100
AcDbLine
 10
56.47956022208086
 20
67.4048226458036
 30
0.0
 11
57.44548604836993
 21
67.14600360070108
 31
0.0
  0
LINE
  5
30E
330
303
100
AcDbEntity
  8
2
  6
Continuous
 62
     5
100
AcDbLine
 10
57.44548604836993
 20
67.66364169090613
 30
0.0
 11
57.44548604836993
 21
67.14600360070108
 31
0.0
  0
LINE
  5
30F
330
303
100
AcDbEntity
  8
2
  6
Continuous
 62
     5
100
AcDbLine
 10
98.99659730893644
 20
67.4048226458036
 30
0.0
 11
97.06474565635831
 21
66.88718455559857
 31
0.0
  0
LINE
  5
310
330
303
100
AcDbEntity
  8
2
  6
Continuous
 62
     5
100
AcDbLine
 10
98.99659730893644
 20
67.4048226458036
 30
0.0
 11
97.06474565635831
 21
67.92246073600866
 31
0.0
  0
LINE
  5
311
330
303
100
AcDbEntity
  8
2
  6
Continuous
 62
     5
100
AcDbLine
 10
97.06474565635831
 20
66.88718455559857
 30
0.0
 11
97.06474565635831
 21
67.92246073600866
 31
0.0
  0
LINE
  5
312
330
303
100
AcDbEntity
  8
2
  6
Continuous
 62
     5
100
AcDbLine
 10
98.51363439579191
 20
67.4048226458036
 30
0.0
 11
97.54770856950284
 21
67.14600360070109
 31
0.0
  0
LINE
  5
313
330
303
100
AcDbEntity
  8
2
  6
Continuous
 62
     5
100
AcDbLine
 10
98.51363439579191
 20
67.4048226458036
 30
0.0
 11
97.54770856950284
 21
67.66364169090613
 31
0.0
  0
LINE
  5
314
330
303
100
AcDbEntity
  8
2
  6
Continuous
 62
     5
100
AcDbLine
 10
97.54770856950284
 20
67.14600360070109
 30
0.0
 11
97.54770856950284
 21
67.66364169090613
 31
0.0
  0
MTEXT
  5
315
330
303
100
AcDbEntity
  8
2
  6
Continuous
 62
     5
100
AcDbMText
 10
77.49659730893639
 20
69.0048226458036
 30
0.0
 40
3.2
 41
0.0
 71
     8
 72
     1
  1
43
 73
     1
 44
1.0
  0
ENDBLK
  5
305
330
303
100
AcDbEntity
  8
0
100
AcDbBlockEnd
  0
BLOCK
  5
318
330
317
100
AcDbEntity
  8
0
100
AcDbBlockBegin
  2
Dim11
 70
     0
 71
     0
 10
0.0
 20
0.0
 30
0.0
  3
Dim11
  1

  0
LINE
  5
31A
330
317
100
AcDbEntity
  8
2
  6
Continuous
 62
     5
100
AcDbLine
 10
37.5986888043022
 20
145.4373427341535
 30
0.0
 11
37.5986888043022
 21
91.43734273415362
 31
0.0
  0
LINE
  5
31B
330
317
100
AcDbEntity
  8
2
  6
Continuous
 62
     5
100
AcDbLine
 10
35.5986888043022
 20
145.4373427341535
 30
0.0
 11
60.1339489453333
 21
145.4373427341534
 31
0.0
  0
LINE
  5
31C
330
317
100
AcDbEntity
  8
2
  6
Continuous
 62
     5
100
AcDbLine
 10
35.5986888043022
 20
91.43734273415363
 30
0.0
 11
61.80131736638599
 21
91.43734273415353
 31
0.0
  0
LINE
  5
31D
330
317
100
AcDbEntity
  8
2
  6
Continuous
 62
     5
100
AcDbLine
 10
37.5986888043022
 20
145.4373427341535
 30
0.0
 11
38.11632689450725
 21
143.5054910815753
 31
0.0
  0
LINE
  5
31E
330
317
100
AcDbEntity
  8
2
  6
Continuous
 62
     5
100
AcDbLine
 10
37.5986888043022
 20
145.4373427341535
 30
0.0
 11
37.08105071409716
 21
143.5054910815753
 31
0.0
  0
LINE
  5
31F
330
317
100
AcDbEntity
  8
2
  6
Continuous
 62
     5
100
AcDbLine
 10
38.11632689450725
 20
143.5054910815753
 30
0.0
 11
37.08105071409716
 21
143.5054910815753
 31
0.0
  0
LINE
  5
320
330
317
100
AcDbEntity
  8
2
  6
Continuous
 62
     5
100
AcDbLine
 10
37.5986888043022
 20
144.9543798210089
 30
0.0
 11
37.85750784940472
 21
143.9884539947199
 31
0.0
  0
LINE
  5
321
330
317
100
AcDbEntity
  8
2
  6
Continuous
 62
     5
100
AcDbLine
 10
37.5986888043022
 20
144.9543798210089
 30
0.0
 11
37.33986975919968
 21
143.9884539947199
 31
0.0
  0
LINE
  5
322
330
317
100
AcDbEntity
  8
2
  6
Continuous
 62
     5
100
AcDbLine
 10
37.85750784940472
 20
143.9884539947199
 30
0.0
 11
37.33986975919968
 21
143.9884539947199
 31
0.0
  0
LINE
  5
323
330
317
100
AcDbEntity
  8
2
  6
Continuous
 62
     5
100
AcDbLine
 10
37.5986888043022
 20
91.43734273415362
 30
0.0
 11
37.08105071409716
 21
93.36919438673175
 31
0.0
  0
LINE
  5
324
330
317
100
AcDbEntity
  8
2
  6
Continuous
 62
     5
100
AcDbLine
 10
37.5986888043022
 20
91.43734273415362
 30
0.0
 11
38.11632689450725
 21
93.36919438673175
 31
0.0
  0
LINE
  5
325
330
317
100
AcDbEntity
  8
2
  6
Continuous
 62
     5
100
AcDbLine
 10
37.08105071409716
 20
93.36919438673175
 30
0.0
 11
38.11632689450725
 21
93.36919438673175
 31
0.0
  0
LINE
  5
326
330
317
100
AcDbEntity
  8
2
  6
Continuous
 62
     5
100
AcDbLine
 10
37.5986888043022
 20
91.92030564729815
 30
0.0
 11
37.33986975919968
 21
92.88623147358722
 31
0.0
  0
LINE
  5
327
330
317
100
AcDbEntity
  8
2
  6
Continuous
 62
     5
100
AcDbLine
 10
37.5986888043022
 20
91.92030564729815
 30
0.0
 11
37.85750784940472
 21
92.88623147358722
 31
0.0
  0
LINE
  5
328
330
317
100
AcDbEntity
  8
2
  6
Continuous
 62
     5
100
AcDbLine
 10
37.33986975919968
 20
92.88623147358722
 30
0.0
 11
37.85750784940472
 21
92.88623147358722
 31
0.0
  0
MTEXT
  5
329
330
317
100
AcDbEntity
  8
2
  6
Continuous
 62
     5
100
AcDbMText
 10
35.9986888043022
 20
118.5330335970197
 30
0.0
 40
3.2
 41
0.0
 71
     8
 72
     1
  1
54
 11
1.615544574432587E-15
 21
1.0
 31
0.0
 73
     1
 44
1.0
  0
ENDBLK
  5
319
330
317
100
AcDbEntity
  8
0
100
AcDbBlockEnd
  0
BLOCK
  5
32C
330
32B
100
AcDbEntity
  8
0
100
AcDbBlockBegin
  2
Dim12
 70
     0
 71
     0
 10
0.0
 20
0.0
 30
0.0
  3
Dim12
  1

  0
LINE
  5
32E
330
32B
100
AcDbEntity
  8
2
  6
Continuous
 62
     5
100
AcDbLine
 10
47.99659730893619
 20
73.05612310105278
 30
0.0
 11
57.99659730893619
 21
73.05612310105278
 31
0.0
  0
LINE
  5
32F
330
32B
100
AcDbEntity
  8
2
  6
Continuous
 62
     5
100
AcDbLine
 10
55.99659730893617
 20
71.05612310105278
 30
0.0
 11
55.99659730893637
 21
95.66447176861064
 31
0.0
  0
LINE
  5
330
330
32B
100
AcDbEntity
  8
2
  6
Continuous
 62
     5
100
AcDbLine
 10
57.99659730893617
 20
71.05612310105278
 30
0.0
 11
57.99659730893637
 21
95.29394545282116
 31
0.0
  0
LINE
  5
331
330
32B
100
AcDbEntity
  8
2
  6
Continuous
 62
     5
100
AcDbLine
 10
55.99659730893619
 20
73.05612310105278
 30
0.0
 11
54.06474565635805
 21
72.53848501084774
 31
0.0
  0
LINE
  5
332
330
32B
100
AcDbEntity
  8
2
  6
Continuous
 62
     5
100
AcDbLine
 10
55.99659730893619
 20
73.05612310105278
 30
0.0
 11
54.06474565635806
 21
73.57376119125783
 31
0.0
  0
LINE
  5
333
330
32B
100
AcDbEntity
  8
2
  6
Continuous
 62
     5
100
AcDbLine
 10
54.06474565635805
 20
72.53848501084774
 30
0.0
 11
54.06474565635806
 21
73.57376119125783
 31
0.0
  0
LINE
  5
334
330
32B
100
AcDbEntity
  8
2
  6
Continuous
 62
     5
100
AcDbLine
 10
55.51363439579166
 20
73.05612310105278
 30
0.0
 11
54.54770856950259
 21
72.79730405595026
 31
0.0
  0
LINE
  5
335
330
32B
100
AcDbEntity
  8
2
  6
Continuous
 62
     5
100
AcDbLine
 10
55.51363439579166
 20
73.05612310105278
 30
0.0
 11
54.54770856950259
 21
73.3149421461553
 31
0.0
  0
LINE
  5
336
330
32B
100
AcDbEntity
  8
2
  6
Continuous
 62
     5
100
AcDbLine
 10
54.54770856950259
 20
72.79730405595026
 30
0.0
 11
54.54770856950259
 21
73.3149421461553
 31
0.0
  0
LINE
  5
337
330
32B
100
AcDbEntity
  8
2
  6
Continuous
 62
     5
100
AcDbLine
 10
57.99659730893619
 20
73.05612310105278
 30
0.0
 11
59.92844896151433
 21
73.57376119125782
 31
0.0
  0
LINE
  5
338
330
32B
100
AcDbEntity
  8
2
  6
Continuous
 62
     5
100
AcDbLine
 10
57.99659730893619
 20
73.05612310105278
 30
0.0
 11
59.92844896151433
 21
72.53848501084774
 31
0.0
  0
LINE
  5
339
330
32B
100
AcDbEntity
  8
2
  6
Continuous
 62
     5
100
AcDbLine
 10
59.92844896151433
 20
73.57376119125782
 30
0.0
 11
59.92844896151433
 21
72.53848501084774
 31
0.0
  0
LINE
  5
33A
330
32B
100
AcDbEntity
  8
2
  6
Continuous
 62
     5
100
AcDbLine
 10
58.47956022208072
 20
73.05612310105278
 30
0.0
 11
59.44548604836979
 21
73.3149421461553
 31
0.0
  0
LINE
  5
33B
330
32B
100
AcDbEntity
  8
2
  6
Continuous
 62
     5
100
AcDbLine
 10
58.47956022208072
 20
73.05612310105278
 30
0.0
 11
59.44548604836979
 21
72.79730405595025
 31
0.0
  0
LINE
  5
33C
330
32B
100
AcDbEntity
  8
2
  6
Continuous
 62
     5
100
AcDbLine
 10
59.44548604836979
 20
73.3149421461553
 30
0.0
 11
59.44548604836979
 21
72.79730405595025
 31
0.0
  0
MTEXT
  5
33D
330
32B
100
AcDbEntity
  8
2
  6
Continuous
 62
     5
100
AcDbMText
 10
52.21111307602196
 20
74.65612310105277
 30
0.0
 40
3.2
 41
0.0
 71
     8
 72
     1
  1
2
 73
     1
 44
1.0
  0
ENDBLK
  5
32D
330
32B
100
AcDbEntity
  8
0
100
AcDbBlockEnd
  0
BLOCK
  5
340
330
33F
100
AcDbEntity
  8
0
100
AcDbBlockBegin
  2
Dim13
 70
     0
 71
     0
 10
0.0
 20
0.0
 30
0.0
  3
Dim13
  1

  0
LINE
  5
342
330
33F
100
AcDbEntity
  8
2
  6
Continuous
 62
     5
100
AcDbLine
 10
57.99659730893619
 20
73.05612310105278
 30
0.0
 11
95.9965973089363
 21
73.05612310105278
 31
0.0
  0
LINE
  5
343
330
33F
100
AcDbEntity
  8
2
  6
Continuous
 62
     5
100
AcDbLine
 10
95.99659730893629
 20
71.05612310105278
 30
0.0
 11
95.99659730893643
 21
89.98517352299662
 31
0.0
  0
LINE
  5
344
330
33F
100
AcDbEntity
  8
2
  6
Continuous
 62
     5
100
AcDbLine
 10
57.99659730893619
 20
73.05612310105278
 30
0.0
 11
56.06474565635805
 21
72.53848501084774
 31
0.0
  0
LINE
  5
345
330
33F
100
AcDbEntity
  8
2
  6
Continuous
 62
     5
100
AcDbLine
 10
57.99659730893619
 20
73.05612310105278
 30
0.0
 11
56.06474565635806
 21
73.57376119125783
 31
0.0
  0
LINE
  5
346
330
33F
100
AcDbEntity
  8
2
  6
Continuous
 62
     5
100
AcDbLine
 10
56.06474565635805
 20
72.53848501084774
 30
0.0
 11
56.06474565635806
 21
73.57376119125783
 31
0.0
  0
LINE
  5
347
330
33F
100
AcDbEntity
  8
2
  6
Continuous
 62
     5
100
AcDbLine
 10
57.51363439579166
 20
73.05612310105278
 30
0.0
 11
56.54770856950259
 21
72.79730405595026
 31
0.0
  0
LINE
  5
348
330
33F
100
AcDbEntity
  8
2
  6
Continuous
 62
     5
100
AcDbLine
 10
57.51363439579166
 20
73.05612310105278
 30
0.0
 11
56.54770856950259
 21
73.3149421461553
 31
0.0
  0
LINE
  5
349
330
33F
100
AcDbEntity
  8
2
  6
Continuous
 62
     5
100
AcDbLine
 10
56.54770856950259
 20
72.79730405595026
 30
0.0
 11
56.54770856950259
 21
73.3149421461553
 31
0.0
  0
LINE
  5
34A
330
33F
100
AcDbEntity
  8
2
  6
Continuous
 62
     5
100
AcDbLine
 10
95.9965973089363
 20
73.05612310105278
 30
0.0
 11
97.92844896151443
 21
73.57376119125782
 31
0.0
  0
LINE
  5
34B
330
33F
100
AcDbEntity
  8
2
  6
Continuous
 62
     5
100
AcDbLine
 10
95.9965973089363
 20
73.05612310105278
 30
0.0
 11
97.92844896151443
 21
72.53848501084774
 31
0.0
  0
LINE
  5
34C
330
33F
100
AcDbEntity
  8
2
  6
Continuous
 62
     5
100
AcDbLine
 10
97.92844896151443
 20
73.57376119125782
 30
0.0
 11
97.92844896151443
 21
72.53848501084774
 31
0.0
  0
LINE
  5
34D
330
33F
100
AcDbEntity
  8
2
  6
Continuous
 62
     5
100
AcDbLine
 10
96.47956022208083
 20
73.05612310105278
 30
0.0
 11
97.4454860483699
 21
73.3149421461553
 31
0.0
  0
LINE
  5
34E
330
33F
100
AcDbEntity
  8
2
  6
Continuous
 62
     5
100
AcDbLine
 10
96.47956022208083
 20
73.05612310105278
 30
0.0
 11
97.4454860483699
 21
72.79730405595025
 31
0.0
  0
LINE
  5
34F
330
33F
100
AcDbEntity
  8
2
  6
Continuous
 62
     5
100
AcDbLine
 10
97.4454860483699
 20
73.3149421461553
 30
0.0
 11
97.4454860483699
 21
72.79730405595025
 31
0.0
  0
MTEXT
  5
350
330
33F
100
AcDbEntity
  8
2
  6
Continuous
 62
     5
100
AcDbMText
 10
76.99659730893626
 20
74.65612310105277
 30
0.0
 40
3.2
 41
0.0
 71
     8
 72
     1
  1
38
 73
     1
 44
1.0
  0
ENDBLK
  5
341
330
33F
100
AcDbEntity
  8
0
100
AcDbBlockEnd
  0
BLOCK
  5
353
330
352
100
AcDbEntity
  8
0
100
AcDbBlockBegin
  2
Dim14
 70
     0
 71
     0
 10
0.0
 20
0.0
 30
0.0
  3
Dim14
  1

  0
LINE
  5
355
330
352
100
AcDbEntity
  8
2
  6
Continuous
 62
     5
100
AcDbLine
 10
95.9965973089363
 20
73.05612310105278
 30
0.0
 11
106.9965973089362
 21
73.05612310105278
 31
0.0
  0
LINE
  5
356
330
352
100
AcDbEntity
  8
2
  6
Continuous
 62
     5
100
AcDbLine
 10
98.99659730893623
 20
71.05612310105278
 30
0.0
 11
98.99659730893643
 21
93.25605071597906
 31
0.0
  0
LINE
  5
357
330
352
100
AcDbEntity
  8
2
  6
Continuous
 62
     5
100
AcDbLine
 10
95.9965973089363
 20
73.05612310105278
 30
0.0
 11
94.06474565635817
 21
72.53848501084774
 31
0.0
  0
LINE
  5
358
330
352
100
AcDbEntity
  8
2
  6
Continuous
 62
     5
100
AcDbLine
 10
95.9965973089363
 20
73.05612310105278
 30
0.0
 11
94.06474565635817
 21
73.57376119125783
 31
0.0
  0
LINE
  5
359
330
352
100
AcDbEntity
  8
2
  6
Continuous
 62
     5
100
AcDbLine
 10
94.06474565635817
 20
72.53848501084774
 30
0.0
 11
94.06474565635817
 21
73.57376119125783
 31
0.0
  0
LINE
  5
35A
330
352
100
AcDbEntity
  8
2
  6
Continuous
 62
     5
100
AcDbLine
 10
95.51363439579177
 20
73.05612310105278
 30
0.0
 11
94.5477085695027
 21
72.79730405595026
 31
0.0
  0
LINE
  5
35B
330
352
100
AcDbEntity
  8
2
  6
Continuous
 62
     5
100
AcDbLine
 10
95.51363439579177
 20
73.05612310105278
 30
0.0
 11
94.5477085695027
 21
73.3149421461553
 31
0.0
  0
LINE
  5
35C
330
352
100
AcDbEntity
  8
2
  6
Continuous
 62
     5
100
AcDbLine
 10
94.5477085695027
 20
72.79730405595026
 30
0.0
 11
94.5477085695027
 21
73.3149421461553
 31
0.0
  0
LINE
  5
35D
330
352
100
AcDbEntity
  8
2
  6
Continuous
 62
     5
100
AcDbLine
 10
98.99659730893624
 20
73.05612310105278
 30
0.0
 11
100.9284489615144
 21
73.57376119125782
 31
0.0
  0
LINE
  5
35E
330
352
100
AcDbEntity
  8
2
  6
Continuous
 62
     5
100
AcDbLine
 10
98.99659730893624
 20
73.05612310105278
 30
0.0
 11
100.9284489615144
 21
72.53848501084774
 31
0.0
  0
LINE
  5
35F
330
352
100
AcDbEntity
  8
2
  6
Continuous
 62
     5
100
AcDbLine
 10
100.9284489615144
 20
73.57376119125782
 30
0.0
 11
100.9284489615144
 21
72.53848501084774
 31
0.0
  0
LINE
  5
360
330
352
100
AcDbEntity
  8
2
  6
Continuous
 62
     5
100
AcDbLine
 10
99.47956022208078
 20
73.05612310105278
 30
0.0
 11
100.4454860483698
 21
73.3149421461553
 31
0.0
  0
LINE
  5
361
330
352
100
AcDbEntity
  8
2
  6
Continuous
 62
     5
100
AcDbLine
 10
99.47956022208078
 20
73.05612310105278
 30
0.0
 11
100.4454860483698
 21
72.79730405595025
 31
0.0
  0
LINE
  5
362
330
352
100
AcDbEntity
  8
2
  6
Continuous
 62
     5
100
AcDbLine
 10
100.4454860483698
 20
73.3149421461553
 30
0.0
 11
100.4454860483698
 21
72.79730405595025
 31
0.0
  0
MTEXT
  5
363
330
352
100
AcDbEntity
  8
2
  6
Continuous
 62
     5
100
AcDbMText
 10
104.3109535632622
 20
74.65612310105277
 30
0.0
 40
3.2
 41
0.0
 71
     8
 72
     1
  1
(3)
 73
     1
 44
1.0
  0
ENDBLK
  5
354
330
352
100
AcDbEntity
  8
0
100
AcDbBlockEnd
  0
BLOCK
  5
366
330
365
100
AcDbEntity
  8
0
100
AcDbBlockBegin
  2
Dim15
 70
     0
 71
     0
 10
0.0
 20
0.0
 30
0.0
  3
Dim15
  1

  0
LINE
  5
368
330
365
100
AcDbEntity
  8
5
  6
Continuous
 62
   174
100
AcDbLine
 10
77.49659730893653
 20
152.3029611737342
 30
0.0
 11
96.45659730893654
 21
152.3029611737342
 31
0.0
  0
LINE
  5
369
330
365
100
AcDbEntity
  8
5
  6
Continuous
 62
   174
100
AcDbLine
 10
77.49659730893653
 20
154.3029611737342
 30
0.0
 11
77.4965973089365
 21
134.821781533258
 31
0.0
  0
LINE
  5
36A
330
365
100
AcDbEntity
  8
5
  6
Continuous
 62
   174
100
AcDbLine
 10
96.45659730893654
 20
154.3029611737342
 30
0.0
 11
96.45659730893651
 21
132.0873427341533
 31
0.0
  0
LINE
  5
36B
330
365
100
AcDbEntity
  8
5
  6
Continuous
 62
   174
100
AcDbLine
 10
77.49659730893653
 20
152.3029611737342
 30
0.0
 11
79.42844896151466
 21
152.8205992639393
 31
0.0
  0
LINE
  5
36C
330
365
100
AcDbEntity
  8
5
  6
Continuous
 62
   174
100
AcDbLine
 10
77.49659730893653
 20
152.3029611737342
 30
0.0
 11
79.42844896151466
 21
151.7853230835292
 31
0.0
  0
LINE
  5
36D
330
365
100
AcDbEntity
  8
5
  6
Continuous
 62
   174
100
AcDbLine
 10
79.42844896151466
 20
152.8205992639393
 30
0.0
 11
79.42844896151466
 21
151.7853230835292
 31
0.0
  0
LINE
  5
36E
330
365
100
AcDbEntity
  8
5
  6
Continuous
 62
   174
100
AcDbLine
 10
77.97956022208106
 20
152.3029611737342
 30
0.0
 11
78.94548604837013
 21
152.5617802188367
 31
0.0
  0
LINE
  5
36F
330
365
100
AcDbEntity
  8
5
  6
Continuous
 62
   174
100
AcDbLine
 10
77.97956022208106
 20
152.3029611737342
 30
0.0
 11
78.94548604837013
 21
152.0441421286317
 31
0.0
  0
LINE
  5
370
330
365
100
AcDbEntity
  8
5
  6
Continuous
 62
   174
100
AcDbLine
 10
78.94548604837013
 20
152.5617802188367
 30
0.0
 11
78.94548604837013
 21
152.0441421286317
 31
0.0
  0
LINE
  5
371
330
365
100
AcDbEntity
  8
5
  6
Continuous
 62
   174
100
AcDbLine
 10
96.45659730893654
 20
152.3029611737342
 30
0.0
 11
94.5247456563584
 21
151.7853230835292
 31
0.0
  0
LINE
  5
372
330
365
100
AcDbEntity
  8
5
  6
Continuous
 62
   174
100
AcDbLine
 10
96.45659730893654
 20
152.3029611737342
 30
0.0
 11
94.5247456563584
 21
152.8205992639393
 31
0.0
  0
LINE
  5
373
330
365
100
AcDbEntity
  8
5
  6
Continuous
 62
   174
100
AcDbLine
 10
94.5247456563584
 20
151.7853230835292
 30
0.0
 11
94.5247456563584
 21
152.8205992639393
 31
0.0
  0
LINE
  5
374
330
365
100
AcDbEntity
  8
5
  6
Continuous
 62
   174
100
AcDbLine
 10
95.973634395792
 20
152.3029611737342
 30
0.0
 11
95.00770856950294
 21
152.0441421286317
 31
0.0
  0
LINE
  5
375
330
365
100
AcDbEntity
  8
5
  6
Continuous
 62
   174
100
AcDbLine
 10
95.973634395792
 20
152.3029611737342
 30
0.0
 11
95.00770856950294
 21
152.5617802188367
 31
0.0
  0
LINE
  5
376
330
365
100
AcDbEntity
  8
5
  6
Continuous
 62
   174
100
AcDbLine
 10
95.00770856950294
 20
152.0441421286317
 30
0.0
 11
95.00770856950294
 21
152.5617802188367
 31
0.0
  0
MTEXT
  5
377
330
365
100
AcDbEntity
  8
5
  6
Continuous
 62
   174
100
AcDbMText
 10
86.9765973089365
 20
153.9029611737342
 30
0.0
 40
3.2
 41
0.0
 71
     8
 72
     1
  1
18.96
 73
     1
 44
1.0
  0
ENDBLK
  5
367
330
365
100
AcDbEntity
  8
0
100
AcDbBlockEnd
  0
BLOCK
  5
37A
330
379
100
AcDbEntity
  8
0
100
AcDbBlockBegin
  2
Dim16
 70
     0
 71
     0
 10
0.0
 20
0.0
 30
0.0
  3
Dim16
  1

  0
LINE
  5
37C
330
379
100
AcDbEntity
  8
5
  6
DASHDOT
 62
   174
100
AcDbLine
 10
109.1566035140484
 20
114.6273427341532
 30
0.0
 11
109.1566035140484
 21
118.4373427341533
 31
0.0
  0
LINE
  5
37D
330
379
100
AcDbEntity
  8
5
  6
DASHDOT
 62
   174
100
AcDbLine
 10
111.1566035140484
 20
114.6273427341532
 30
0.0
 11
103.8296329080705
 21
114.6273427341533
 31
0.0
  0
LINE
  5
37E
330
379
100
AcDbEntity
  8
5
  6
DASHDOT
 62
   174
100
AcDbLine
 10
111.1566035140484
 20
118.4373427341533
 30
0.0
 11
105.2467021512267
 21
118.4373427341533
 31
0.0
  0
LINE
  5
37F
330
379
100
AcDbEntity
  8
5
  6
DASHDOT
 62
   174
100
AcDbLine
 10
109.1566035140484
 20
114.6273427341532
 30
0.0
 11
108.6389654238433
 21
116.5591943867314
 31
0.0
  0
LINE
  5
380
330
379
100
AcDbEntity
  8
5
  6
DASHDOT
 62
   174
100
AcDbLine
 10
109.1566035140484
 20
114.6273427341532
 30
0.0
 11
109.6742416042534
 21
116.5591943867314
 31
0.0
  0
LINE
  5
381
330
379
100
AcDbEntity
  8
5
  6
DASHDOT
 62
   174
100
AcDbLine
 10
108.6389654238433
 20
116.5591943867314
 30
0.0
 11
109.6742416042534
 21
116.5591943867314
 31
0.0
  0
LINE
  5
382
330
379
100
AcDbEntity
  8
5
  6
DASHDOT
 62
   174
100
AcDbLine
 10
109.1566035140484
 20
115.1103056472978
 30
0.0
 11
108.8977844689459
 21
116.0762314735868
 31
0.0
  0
LINE
  5
383
330
379
100
AcDbEntity
  8
5
  6
DASHDOT
 62
   174
100
AcDbLine
 10
109.1566035140484
 20
115.1103056472978
 30
0.0
 11
109.4154225591509
 21
116.0762314735868
 31
0.0
  0
LINE
  5
384
330
379
100
AcDbEntity
  8
5
  6
DASHDOT
 62
   174
100
AcDbLine
 10
108.8977844689459
 20
116.0762314735868
 30
0.0
 11
109.4154225591509
 21
116.0762314735868
 31
0.0
  0
LINE
  5
385
330
379
100
AcDbEntity
  8
5
  6
DASHDOT
 62
   174
100
AcDbLine
 10
109.1566035140484
 20
118.4373427341533
 30
0.0
 11
109.6742416042534
 21
116.5054910815751
 31
0.0
  0
LINE
  5
386
330
379
100
AcDbEntity
  8
5
  6
DASHDOT
 62
   174
100
AcDbLine
 10
109.1566035140484
 20
118.4373427341533
 30
0.0
 11
108.6389654238433
 21
116.5054910815751
 31
0.0
  0
LINE
  5
387
330
379
100
AcDbEntity
  8
5
  6
DASHDOT
 62
   174
100
AcDbLine
 10
109.6742416042534
 20
116.5054910815751
 30
0.0
 11
108.6389654238433
 21
116.5054910815751
 31
0.0
  0
LINE
  5
388
330
379
100
AcDbEntity
  8
5
  6
DASHDOT
 62
   174
100
AcDbLine
 10
109.1566035140484
 20
117.9543798210087
 30
0.0
 11
109.4154225591509
 21
116.9884539947197
 31
0.0
  0
LINE
  5
389
330
379
100
AcDbEntity
  8
5
  6
DASHDOT
 62
   174
100
AcDbLine
 10
109.1566035140484
 20
117.9543798210087
 30
0.0
 11
108.8977844689459
 21
116.9884539947197
 31
0.0
  0
LINE
  5
38A
330
379
100
AcDbEntity
  8
5
  6
DASHDOT
 62
   174
100
AcDbLine
 10
109.4154225591509
 20
116.9884539947197
 30
0.0
 11
108.8977844689459
 21
116.9884539947197
 31
0.0
  0
CIRCLE
  5
38B
330
379
100
AcDbEntity
  8
5
  6
DASHDOT
 62
   174
100
AcDbCircle
 10
109.1566035140484
 20
116.5323427341532
 30
0.0
 40
0.3
  0
CIRCLE
  5
38C
330
379
100
AcDbEntity
  8
5
  6
DASHDOT
 62
   174
100
AcDbCircle
 10
109.1566035140484
 20
116.5323427341532
 30
0.0
 40
0.15
  0
POLYLINE
  5
38D
330
379
100
AcDbEntity
  8
5
  6
DASHDOT
 62
   174
100
AcDb2dPolyline
 66
     1
 10
0.0
 20
0.0
 30
0.0
  0
VERTEX
  5
38F
330
38D
100
AcDbEntity
  8
5
  6
DASHDOT
 62
   174
100
AcDbVertex
100
AcDb2dVertex
 10
109.1566035140484
 20
116.5323427341532
 30
0.0
  0
VERTEX
  5
390
330
38D
100
AcDbEntity
  8
5
  6
DASHDOT
 62
   174
100
AcDbVertex
100
AcDb2dVertex
 10
113.9566035140484
 20
116.5323427341532
 30
0.0
  0
VERTEX
  5
391
330
38D
100
AcDbEntity
  8
5
  6
DASHDOT
 62
   174
100
AcDbVertex
100
AcDb2dVertex
 10
113.9566035140484
 20
123.5323427341532
 30
0.0
  0
SEQEND
  5
38E
330
38D
100
AcDbEntity
  8
5
  6
DASHDOT
  0
MTEXT
  5
392
330
379
100
AcDbEntity
  8
5
  6
DASHDOT
 62
   174
100
AcDbMText
 10
112.3566035140484
 20
120.0323427341532
 30
0.0
 40
3.2
 41
0.0
 71
     8
 72
     1
  1
3.81
 11
1.615544574432587E-15
 21
1.0
 31
0.0
 73
     1
 44
1.0
  0
ENDBLK
  5
37B
330
379
100
AcDbEntity
  8
0
100
AcDbBlockEnd
  0
BLOCK
  5
395
330
394
100
AcDbEntity
  8
0
100
AcDbBlockBegin
  2
Dim17
 70
     0
 71
     0
 10
0.0
 20
0.0
 30
0.0
  3
Dim17
  1

  0
LINE
  5
397
330
394
100
AcDbEntity
  8
5
  6
DASHDOT
 62
   174
100
AcDbLine
 10
109.1566035140484
 20
118.4373427341533
 30
0.0
 11
109.1566035140484
 21
129.8673427341533
 31
0.0
  0
LINE
  5
398
330
394
100
AcDbEntity
  8
5
  6
DASHDOT
 62
   174
100
AcDbLine
 10
111.1566035140484
 20
129.8673427341533
 30
0.0
 11
105.9552367728048
 21
129.8673427341533
 31
0.0
  0
LINE
  5
399
330
394
100
AcDbEntity
  8
5
  6
DASHDOT
 62
   174
100
AcDbLine
 10
109.1566035140484
 20
118.4373427341533
 30
0.0
 11
108.6389654238433
 21
120.3691943867314
 31
0.0
  0
LINE
  5
39A
330
394
100
AcDbEntity
  8
5
  6
DASHDOT
 62
   174
100
AcDbLine
 10
109.1566035140484
 20
118.4373427341533
 30
0.0
 11
109.6742416042534
 21
120.3691943867314
 31
0.0
  0
LINE
  5
39B
330
394
100
AcDbEntity
  8
5
  6
DASHDOT
 62
   174
100
AcDbLine
 10
108.6389654238433
 20
120.3691943867314
 30
0.0
 11
109.6742416042534
 21
120.3691943867314
 31
0.0
  0
LINE
  5
39C
330
394
100
AcDbEntity
  8
5
  6
DASHDOT
 62
   174
100
AcDbLine
 10
109.1566035140484
 20
118.9203056472978
 30
0.0
 11
108.8977844689459
 21
119.8862314735869
 31
0.0
  0
LINE
  5
39D
330
394
100
AcDbEntity
  8
5
  6
DASHDOT
 62
   174
100
AcDbLine
 10
109.1566035140484
 20
118.9203056472978
 30
0.0
 11
109.4154225591509
 21
119.8862314735869
 31
0.0
  0
LINE
  5
39E
330
394
100
AcDbEntity
  8
5
  6
DASHDOT
 62
   174
100
AcDbLine
 10
108.8977844689459
 20
119.8862314735869
 30
0.0
 11
109.4154225591509
 21
119.8862314735869
 31
0.0
  0
LINE
  5
39F
330
394
100
AcDbEntity
  8
5
  6
DASHDOT
 62
   174
100
AcDbLine
 10
109.1566035140484
 20
129.8673427341533
 30
0.0
 11
109.6742416042534
 21
127.9354910815751
 31
0.0
  0
LINE
  5
3A0
330
394
100
AcDbEntity
  8
5
  6
DASHDOT
 62
   174
100
AcDbLine
 10
109.1566035140484
 20
129.8673427341533
 30
0.0
 11
108.6389654238433
 21
127.9354910815751
 31
0.0
  0
LINE
  5
3A1
330
394
100
AcDbEntity
  8
5
  6
DASHDOT
 62
   174
100
AcDbLine
 10
109.6742416042534
 20
127.9354910815751
 30
0.0
 11
108.6389654238433
 21
127.9354910815751
 31
0.0
  0
LINE
  5
3A2
330
394
100
AcDbEntity
  8
5
  6
DASHDOT
 62
   174
100
AcDbLine
 10
109.1566035140484
 20
129.3843798210087
 30
0.0
 11
109.4154225591509
 21
128.4184539947196
 31
0.0
  0
LINE
  5
3A3
330
394
100
AcDbEntity
  8
5
  6
DASHDOT
 62
   174
100
AcDbLine
 10
109.1566035140484
 20
129.3843798210087
 30
0.0
 11
108.8977844689459
 21
128.4184539947196
 31
0.0
  0
LINE
  5
3A4
330
394
100
AcDbEntity
  8
5
  6
DASHDOT
 62
   174
100
AcDbLine
 10
109.4154225591509
 20
128.4184539947196
 30
0.0
 11
108.8977844689459
 21
128.4184539947196
 31
0.0
  0
MTEXT
  5
3A5
330
394
100
AcDbEntity
  8
5
  6
DASHDOT
 62
   174
100
AcDbMText
 10
107.5566035140484
 20
124.1523427341533
 30
0.0
 40
3.2
 41
0.0
 71
     8
 72
     1
  1
11.43
 11
1.615544574432587E-15
 21
1.0
 31
0.0
 73
     1
 44
1.0
  0
ENDBLK
  5
396
330
394
100
AcDbEntity
  8
0
100
AcDbBlockEnd
  0
BLOCK
  5
3A8
330
3A7
100
AcDbEntity
  8
0
100
AcDbBlockBegin
  2
Dim18
 70
     0
 71
     0
 10
0.0
 20
0.0
 30
0.0
  3
Dim18
  1

  0
LINE
  5
3AA
330
3A7
100
AcDbEntity
  8
5
  6
DASHDOT
 62
   174
100
AcDbLine
 10
109.1566035140484
 20
129.8673427341533
 30
0.0
 11
109.1566035140484
 21
142.4373427341532
 31
0.0
  0
LINE
  5
3AB
330
3A7
100
AcDbEntity
  8
5
  6
DASHDOT
 62
   174
100
AcDbLine
 10
111.1566035140484
 20
142.4373427341532
 30
0.0
 11
106.6637713943829
 21
142.4373427341532
 31
0.0
  0
LINE
  5
3AC
330
3A7
100
AcDbEntity
  8
5
  6
DASHDOT
 62
   174
100
AcDbLine
 10
109.1566035140484
 20
129.8673427341533
 30
0.0
 11
108.6389654238433
 21
131.7991943867314
 31
0.0
  0
LINE
  5
3AD
330
3A7
100
AcDbEntity
  8
5
  6
DASHDOT
 62
   174
100
AcDbLine
 10
109.1566035140484
 20
129.8673427341533
 30
0.0
 11
109.6742416042534
 21
131.7991943867314
 31
0.0
  0
LINE
  5
3AE
330
3A7
100
AcDbEntity
  8
5
  6
DASHDOT
 62
   174
100
AcDbLine
 10
108.6389654238433
 20
131.7991943867314
 30
0.0
 11
109.6742416042534
 21
131.7991943867314
 31
0.0
  0
LINE
  5
3AF
330
3A7
100
AcDbEntity
  8
5
  6
DASHDOT
 62
   174
100
AcDbLine
 10
109.1566035140484
 20
130.3503056472978
 30
0.0
 11
108.8977844689459
 21
131.3162314735869
 31
0.0
  0
LINE
  5
3B0
330
3A7
100
AcDbEntity
  8
5
  6
DASHDOT
 62
   174
100
AcDbLine
 10
109.1566035140484
 20
130.3503056472978
 30
0.0
 11
109.4154225591509
 21
131.3162314735869
 31
0.0
  0
LINE
  5
3B1
330
3A7
100
AcDbEntity
  8
5
  6
DASHDOT
 62
   174
100
AcDbLine
 10
108.8977844689459
 20
131.3162314735869
 30
0.0
 11
109.4154225591509
 21
131.3162314735869
 31
0.0
  0
LINE
  5
3B2
330
3A7
100
AcDbEntity
  8
5
  6
DASHDOT
 62
   174
100
AcDbLine
 10
109.1566035140484
 20
142.4373427341532
 30
0.0
 11
109.6742416042534
 21
140.5054910815751
 31
0.0
  0
LINE
  5
3B3
330
3A7
100
AcDbEntity
  8
5
  6
DASHDOT
 62
   174
100
AcDbLine
 10
109.1566035140484
 20
142.4373427341532
 30
0.0
 11
108.6389654238433
 21
140.5054910815751
 31
0.0
  0
LINE
  5
3B4
330
3A7
100
AcDbEntity
  8
5
  6
DASHDOT
 62
   174
100
AcDbLine
 10
109.6742416042534
 20
140.5054910815751
 30
0.0
 11
108.6389654238433
 21
140.5054910815751
 31
0.0
  0
LINE
  5
3B5
330
3A7
100
AcDbEntity
  8
5
  6
DASHDOT
 62
   174
100
AcDbLine
 10
109.1566035140484
 20
141.9543798210087
 30
0.0
 11
109.4154225591509
 21
140.9884539947196
 31
0.0
  0
LINE
  5
3B6
330
3A7
100
AcDbEntity
  8
5
  6
DASHDOT
 62
   174
100
AcDbLine
 10
109.1566035140484
 20
141.9543798210087
 30
0.0
 11
108.8977844689459
 21
140.9884539947196
 31
0.0
  0
LINE
  5
3B7
330
3A7
100
AcDbEntity
  8
5
  6
DASHDOT
 62
   174
100
AcDbLine
 10
109.4154225591509
 20
140.9884539947196
 30
0.0
 11
108.8977844689459
 21
140.9884539947196
 31
0.0
  0
MTEXT
  5
3B8
330
3A7
100
AcDbEntity
  8
5
  6
DASHDOT
 62
   174
100
AcDbMText
 10
107.5566035140484
 20
136.1523427341533
 30
0.0
 40
3.2
 41
0.0
 71
     8
 72
     1
  1
12.57
 11
1.615544574432587E-15
 21
1.0
 31
0.0
 73
     1
 44
1.0
  0
ENDBLK
  5
3A9
330
3A7
100
AcDbEntity
  8
0
100
AcDbBlockEnd
  0
BLOCK
  5
3BD
330
3BC
100
AcDbEntity
  8
0
100
AcDbBlockBegin
  2
Dim19
 70
     0
 71
     0
 10
0.0
 20
0.0
 30
0.0
  3
Dim19
  1

  0
LINE
  5
3BF
330
3BC
100
AcDbEntity
  8
2
  6
Continuous
 62
     5
100
AcDbLine
 10
119.942287229058
 20
142.4373427341526
 30
0.0
 11
119.942287229058
 21
94.4373427341526
 31
0.0
  0
LINE
  5
3C0
330
3BC
100
AcDbEntity
  8
2
  6
Continuous
 62
     5
100
AcDbLine
 10
121.942287229058
 20
142.4373427341526
 30
0.0
 11
97.99659730893639
 21
142.4373427341532
 31
0.0
  0
LINE
  5
3C1
330
3BC
100
AcDbEntity
  8
2
  6
Continuous
 62
     5
100
AcDbLine
 10
121.942287229058
 20
94.43734273415254
 30
0.0
 11
97.99659730893644
 21
94.43734273415325
 31
0.0
  0
LINE
  5
3C2
330
3BC
100
AcDbEntity
  8
2
  6
Continuous
 62
     5
100
AcDbLine
 10
119.942287229058
 20
142.4373427341526
 30
0.0
 11
120.4599253192631
 21
140.5054910815745
 31
0.0
  0
LINE
  5
3C3
330
3BC
100
AcDbEntity
  8
2
  6
Continuous
 62
     5
100
AcDbLine
 10
119.942287229058
 20
142.4373427341526
 30
0.0
 11
119.424649138853
 21
140.5054910815745
 31
0.0
  0
LINE
  5
3C4
330
3BC
100
AcDbEntity
  8
2
  6
Continuous
 62
     5
100
AcDbLine
 10
120.4599253192631
 20
140.5054910815745
 30
0.0
 11
119.424649138853
 21
140.5054910815745
 31
0.0
  0
LINE
  5
3C5
330
3BC
100
AcDbEntity
  8
2
  6
Continuous
 62
     5
100
AcDbLine
 10
119.942287229058
 20
141.9543798210081
 30
0.0
 11
120.2011062741606
 21
140.988453994719
 31
0.0
  0
LINE
  5
3C6
330
3BC
100
AcDbEntity
  8
2
  6
Continuous
 62
     5
100
AcDbLine
 10
119.942287229058
 20
141.9543798210081
 30
0.0
 11
119.6834681839555
 21
140.988453994719
 31
0.0
  0
LINE
  5
3C7
330
3BC
100
AcDbEntity
  8
2
  6
Continuous
 62
     5
100
AcDbLine
 10
120.2011062741606
 20
140.988453994719
 30
0.0
 11
119.6834681839555
 21
140.988453994719
 31
0.0
  0
LINE
  5
3C8
330
3BC
100
AcDbEntity
  8
2
  6
Continuous
 62
     5
100
AcDbLine
 10
119.942287229058
 20
94.4373427341526
 30
0.0
 11
119.424649138853
 21
96.36919438673073
 31
0.0
  0
LINE
  5
3C9
330
3BC
100
AcDbEntity
  8
2
  6
Continuous
 62
     5
100
AcDbLine
 10
119.942287229058
 20
94.4373427341526
 30
0.0
 11
120.4599253192631
 21
96.36919438673073
 31
0.0
  0
LINE
  5
3CA
330
3BC
100
AcDbEntity
  8
2
  6
Continuous
 62
     5
100
AcDbLine
 10
119.424649138853
 20
96.36919438673073
 30
0.0
 11
120.4599253192631
 21
96.36919438673073
 31
0.0
  0
LINE
  5
3CB
330
3BC
100
AcDbEntity
  8
2
  6
Continuous
 62
     5
100
AcDbLine
 10
119.942287229058
 20
94.92030564729713
 30
0.0
 11
119.6834681839555
 21
95.8862314735862
 31
0.0
  0
LINE
  5
3CC
330
3BC
100
AcDbEntity
  8
2
  6
Continuous
 62
     5
100
AcDbLine
 10
119.942287229058
 20
94.92030564729713
 30
0.0
 11
120.2011062741606
 21
95.8862314735862
 31
0.0
  0
LINE
  5
3CD
330
3BC
100
AcDbEntity
  8
2
  6
Continuous
 62
     5
100
AcDbLine
 10
119.6834681839555
 20
95.8862314735862
 30
0.0
 11
120.2011062741606
 21
95.8862314735862
 31
0.0
  0
MTEXT
  5
3CE
330
3BC
100
AcDbEntity
  8
2
  6
Continuous
 62
     5
100
AcDbMText
 10
118.342287229058
 20
118.4373427341526
 30
0.0
 40
3.2
 41
0.0
 71
     8
 72
     1
  1
48
 11
1.837589179357618E-15
 21
1.0
 31
0.0
 73
     1
 44
1.0
  0
ENDBLK
  5
3BE
330
3BC
100
AcDbEntity
  8
0
100
AcDbBlockEnd
  0
BLOCK
  5
3D1
330
3D0
100
AcDbEntity
  8
0
100
AcDbBlockBegin
  2
*G65
 70
     1
 71
     0
 10
0.0
 20
0.0
 30
0.0
  3
*G65
  1

  0
LINE
  5
3D3
330
3D0
100
AcDbEntity
  8
128
  6
Continuous
 62
     7
100
AcDbLine
 10
17.38882003904251
 20
8.778067181401909
 30
0.0
 11
17.38882003904268
 21
194.8780671814019
 31
0.0
  0
LINE
  5
3D4
330
3D0
100
AcDbEntity
  8
128
  6
Continuous
 62
     7
100
AcDbLine
 10
17.38882003904268
 20
194.8780671814019
 30
0.0
 11
284.3888200390426
 21
194.8780671814019
 31
0.0
  0
LINE
  5
3D5
330
3D0
100
AcDbEntity
  8
128
  6
Continuous
 62
     7
100
AcDbLine
 10
284.3888200390426
 20
194.8780671814019
 30
0.0
 11
284.3888200390425
 21
8.778067181401909
 31
0.0
  0
LINE
  5
3D6
330
3D0
100
AcDbEntity
  8
128
  6
Continuous
 62
     7
100
AcDbLine
 10
284.3888200390425
 20
8.778067181401909
 30
0.0
 11
17.38882003904251
 21
8.778067181401909
 31
0.0
  0
ENDBLK
  5
3D2
330
3D0
100
AcDbEntity
  8
0
100
AcDbBlockEnd
  0
BLOCK
  5
3E6
330
3E5
100
AcDbEntity
  8
0
100
AcDbBlockBegin
  2
*G66
 70
     1
 71
     0
 10
0.0
 20
0.0
 30
0.0
  3
*G66
  1

  0
LINE
  5
3E8
330
3E5
100
AcDbEntity
  8
128
  6
Continuous
 62
     7
100
AcDbLine
 10
284.3888200390425
 20
38.77806718140191
 30
0.0
 11
159.3888200390425
 21
38.77806718140191
 31
0.0
  0
LINE
  5
3E9
330
3E5
100
AcDbEntity
  8
128
  6
Continuous
 62
     7
100
AcDbLine
 10
159.3888200390425
 20
38.77806718140191
 30
0.0
 11
159.3888200390425
 21
8.778067181401909
 31
0.0
  0
LINE
  5
3EA
330
3E5
100
AcDbEntity
  8
128
  6
Continuous
 62
     7
100
AcDbLine
 10
284.3888200390425
 20
8.778067181401909
 30
0.0
 11
284.3888200390425
 21
38.77806718140191
 31
0.0
  0
LINE
  5
3EB
330
3E5
100
AcDbEntity
  8
128
  6
Continuous
 62
     7
100
AcDbLine
 10
159.3888200390425
 20
8.778067181401909
 30
0.0
 11
284.3888200390425
 21
8.778067181401909
 31
0.0
  0
ENDBLK
  5
3E7
330
3E5
100
AcDbEntity
  8
0
100
AcDbBlockEnd
  0
BLOCK
  5
45B
330
45A
100
AcDbEntity
  8
0
100
AcDbBlockBegin
  2
*G67
 70
     1
 71
     0
 10
0.0
 20
0.0
 30
0.0
  3
*G67
  1

  0
LINE
  5
45D
330
45A
100
AcDbEntity
  8
3
  6
Continuous
 62
    14
100
AcDbLine
 10
97.4565973089363
 20
138.6008565338172
 30
0.0
 11
97.4565973089363
 21
133.6008565338172
 31
0.0
  0
LINE
  5
45E
330
45A
100
AcDbEntity
  8
3
  6
Continuous
 62
    14
100
AcDbLine
 10
97.4565973089363
 20
133.6008565338172
 30
0.0
 11
94.9565973089363
 21
133.6008565338172
 31
0.0
  0
LINE
  5
45F
330
45A
100
AcDbEntity
  8
3
  6
Continuous
 62
    14
100
AcDbLine
 10
94.9565973089363
 20
133.6008565338172
 30
0.0
 11
94.9565973089363
 21
138.6008565338172
 31
0.0
  0
LINE
  5
460
330
45A
100
AcDbEntity
  8
3
  6
Continuous
 62
    14
100
AcDbLine
 10
94.9565973089363
 20
138.6008565338172
 30
0.0
 11
97.4565973089363
 21
138.6008565338172
 31
0.0
  0
ENDBLK
  5
45C
330
45A
100
AcDbEntity
  8
0
100
AcDbBlockEnd
  0
ENDSEC
  0
SECTION
  2
ENTITIES
  0
INSERT
  5
92
330
1F
100
AcDbEntity
  8
0
100
AcDbBlockReference
  2
*G12
 10
0.0
 20
0.0
 30
0.0
  0
LINE
  5
93
330
1F
100
AcDbEntity
  8
5
  6
DASHDOT
 62
   174
100
AcDbLine
 10
57.99659730893639
 20
139.2936822949264
 30
0.0
 11
57.99659730893639
 21
135.6982047120804
 31
0.0
  0
LINE
  5
94
330
1F
100
AcDbEntity
  8
5
  6
DASHDOT
 62
   174
100
AcDbLine
 10
59.79973083302455
 20
137.4373427341533
 30
0.0
 11
55.99659730893639
 21
137.4373427341533
 31
0.0
  0
LINE
  5
95
330
1F
100
AcDbEntity
  8
5
  6
DASHDOT
 62
   174
100
AcDbLine
 10
57.99659730893639
 20
101.2936822949264
 30
0.0
 11
57.99659730893639
 21
97.69820471208037
 31
0.0
  0
LINE
  5
96
330
1F
100
AcDbEntity
  8
5
  6
DASHDOT
 62
   174
100
AcDbLine
 10
59.79973083302455
 20
99.43734273415329
 30
0.0
 11
55.99659730893639
 21
99.43734273415329
 31
0.0
  0
LINE
  5
97
330
1F
100
AcDbEntity
  8
5
  6
DASHDOT
 62
   174
100
AcDbLine
 10
95.99659730893639
 20
144.2936822949264
 30
0.0
 11
95.99659730893639
 21
140.6982047120804
 31
0.0
  0
LINE
  5
98
330
1F
100
AcDbEntity
  8
5
  6
DASHDOT
 62
   174
100
AcDbLine
 10
95.99659730893644
 20
96.29368229492641
 30
0.0
 11
95.99659730893644
 21
92.69820471208038
 31
0.0
  0
LINE
  5
99
330
1F
100
AcDbEntity
  8
5
  6
DASHDOT
 62
   174
100
AcDbLine
 10
97.79973083302458
 20
94.4373427341533
 30
0.0
 11
94.75693681928625
 21
94.4373427341533
 31
0.0
  0
LINE
  5
9A
330
1F
100
AcDbEntity
  8
5
  6
DASHDOT
 62
   174
100
AcDbLine
 10
97.79973083302453
 20
142.4373427341533
 30
0.0
 11
92.99659730893639
 21
142.4373427341533
 31
0.0
  0
LINE
  5
9B
330
1F
100
AcDbEntity
  8
5
  6
DASHDOT
 62
   174
100
AcDbLine
 10
76.99659730893642
 20
142.2936822949264
 30
0.0
 11
76.99659730893642
 21
138.6982047120803
 31
0.0
  0
LINE
  5
9C
330
1F
100
AcDbEntity
  8
5
  6
DASHDOT
 62
   174
100
AcDbLine
 10
78.79973083302455
 20
140.4373427341532
 30
0.0
 11
74.99659730893642
 21
140.4373427341532
 31
0.0
  0
LINE
  5
9D
330
1F
100
AcDbEntity
  8
5
  6
DASHDOT
 62
   174
100
AcDbLine
 10
76.99659730893642
 20
98.29368229492641
 30
0.0
 11
76.99659730893642
 21
94.69820471208038
 31
0.0
  0
LINE
  5
9E
330
1F
100
AcDbEntity
  8
5
  6
DASHDOT
 62
   174
100
AcDbLine
 10
78.79973083302455
 20
96.4373427341533
 30
0.0
 11
74.99659730893642
 21
96.4373427341533
 31
0.0
  0
INSERT
  5
AC
330
1F
100
AcDbEntity
  8
0
100
AcDbBlockReference
  2
*G13
 10
0.0
 20
0.0
 30
0.0
  0
INSERT
  5
BA
330
1F
100
AcDbEntity
  8
0
100
AcDbBlockReference
  2
*G15
 10
0.0
 20
0.0
 30
0.0
  0
CIRCLE
  5
BB
330
1F
100
AcDbEntity
  8
1
  6
Continuous
 62
     7
100
AcDbCircle
 10
95.99659730893644
 20
94.4373427341533
 30
0.0
 40
1.5
  0
CIRCLE
  5
BC
330
1F
100
AcDbEntity
  8
1
  6
Continuous
 62
     7
100
AcDbCircle
 10
95.99659730893639
 20
142.4373427341533
 30
0.0
 40
1.5
  0
CIRCLE
  5
BD
330
1F
100
AcDbEntity
  8
1
  6
Continuous
 62
     7
100
AcDbCircle
 10
57.99659730893639
 20
99.43734273415329
 30
0.0
 40
1.5
  0
CIRCLE
  5
BE
330
1F
100
AcDbEntity
  8
1
  6
Continuous
 62
     7
100
AcDbCircle
 10
57.99659730893639
 20
137.4373427341533
 30
0.0
 40
1.5
  0
TEXT
  5
BF
330
1F
100
AcDbEntity
  8
6
  6
Continuous
 62
    94
100
AcDbText
 10
58.56797882146286
 20
125.9349040345961
 30
0.0
 40
3.5
  1
A面
100
AcDbText
  0
LINE
  5
C0
330
1F
100
AcDbEntity
  8
5
  6
DASHDOT
 62
   174
100
AcDbLine
 10
77.4965973089365
 20
147.6099033816425
 30
0.0
 11
77.4965973089365
 21
87.25161030595818
 31
0.0
  0
INSERT
  5
CA
330
1F
100
AcDbEntity
  8
0
100
AcDbBlockReference
  2
*G17
 10
0.0
 20
0.0
 30
0.0
  0
INSERT
  5
D4
330
1F
100
AcDbEntity
  8
0
100
AcDbBlockReference
  2
*G18
 10
0.0
 20
0.0
 30
0.0
  0
INSERT
  5
DE
330
1F
100
AcDbEntity
  8
0
100
AcDbBlockReference
  2
*G19
 10
0.0
 20
0.0
 30
0.0
  0
INSERT
  5
E8
330
1F
100
AcDbEntity
  8
0
100
AcDbBlockReference
  2
*G20
 10
0.0
 20
0.0
 30
0.0
  0
INSERT
  5
F0
330
1F
100
AcDbEntity
  8
0
100
AcDbBlockReference
  2
*G21
 10
0.0
 20
0.0
 30
0.0
  0
INSERT
  5
F8
330
1F
100
AcDbEntity
  8
0
100
AcDbBlockReference
  2
*G22
 10
0.0
 20
0.0
 30
0.0
  0
INSERT
  5
100
330
1F
100
AcDbEntity
  8
0
100
AcDbBlockReference
  2
*G23
 10
0.0
 20
0.0
 30
0.0
  0
INSERT
  5
108
330
1F
100
AcDbEntity
  8
0
100
AcDbBlockReference
  2
*G24
 10
0.0
 20
0.0
 30
0.0
  0
INSERT
  5
110
330
1F
100
AcDbEntity
  8
0
100
AcDbBlockReference
  2
*G25
 10
0.0
 20
0.0
 30
0.0
  0
INSERT
  5
118
330
1F
100
AcDbEntity
  8
0
100
AcDbBlockReference
  2
*G26
 10
0.0
 20
0.0
 30
0.0
  0
INSERT
  5
120
330
1F
100
AcDbEntity
  8
0
100
AcDbBlockReference
  2
*G27
 10
0.0
 20
0.0
 30
0.0
  0
INSERT
  5
128
330
1F
100
AcDbEntity
  8
0
100
AcDbBlockReference
  2
*G28
 10
0.0
 20
0.0
 30
0.0
  0
INSERT
  5
130
330
1F
100
AcDbEntity
  8
0
100
AcDbBlockReference
  2
*G29
 10
0.0
 20
0.0
 30
0.0
  0
LINE
  5
131
330
1F
100
AcDbEntity
  8
3
  6
Continuous
 62
    14
100
AcDbLine
 10
197.971349062026
 20
115.5206760674866
 30
0.0
 11
195.021349062026
 21
115.5206760674866
 31
0.0
  0
LINE
  5
132
330
1F
100
AcDbEntity
  8
3
  6
Continuous
 62
    14
100
AcDbLine
 10
197.971349062026
 20
115.8340094008199
 30
0.0
 11
195.021349062026
 21
115.8340094008199
 31
0.0
  0
LINE
  5
133
330
1F
100
AcDbEntity
  8
3
  6
Continuous
 62
    14
100
AcDbLine
 10
197.971349062026
 20
118.0606760674866
 30
0.0
 11
195.021349062026
 21
118.0606760674866
 31
0.0
  0
LINE
  5
134
330
1F
100
AcDbEntity
  8
3
  6
Continuous
 62
    14
100
AcDbLine
 10
197.971349062026
 20
118.3740094008199
 30
0.0
 11
195.021349062026
 21
118.3740094008199
 31
0.0
  0
LINE
  5
135
330
1F
100
AcDbEntity
  8
3
  6
Continuous
 62
    14
100
AcDbLine
 10
197.971349062026
 20
120.6006760674866
 30
0.0
 11
195.021349062026
 21
120.6006760674866
 31
0.0
  0
LINE
  5
136
330
1F
100
AcDbEntity
  8
3
  6
Continuous
 62
    14
100
AcDbLine
 10
197.971349062026
 20
120.9140094008199
 30
0.0
 11
195.021349062026
 21
120.9140094008199
 31
0.0
  0
LINE
  5
137
330
1F
100
AcDbEntity
  8
3
  6
Continuous
 62
    14
100
AcDbLine
 10
197.971349062026
 20
123.1406760674866
 30
0.0
 11
195.021349062026
 21
123.1406760674866
 31
0.0
  0
LINE
  5
138
330
1F
100
AcDbEntity
  8
3
  6
Continuous
 62
    14
100
AcDbLine
 10
197.971349062026
 20
123.4540094008199
 30
0.0
 11
195.021349062026
 21
123.4540094008199
 31
0.0
  0
LINE
  5
139
330
1F
100
AcDbEntity
  8
3
  6
Continuous
 62
    14
100
AcDbLine
 10
197.971349062026
 20
125.6806760674866
 30
0.0
 11
195.021349062026
 21
125.6806760674866
 31
0.0
  0
LINE
  5
13A
330
1F
100
AcDbEntity
  8
3
  6
Continuous
 62
    14
100
AcDbLine
 10
197.971349062026
 20
125.9940094008199
 30
0.0
 11
195.021349062026
 21
125.9940094008199
 31
0.0
  0
LINE
  5
13B
330
1F
100
AcDbEntity
  8
3
  6
Continuous
 62
    14
100
AcDbLine
 10
197.971349062026
 20
128.2206760674866
 30
0.0
 11
195.021349062026
 21
128.2206760674866
 31
0.0
  0
LINE
  5
13C
330
1F
100
AcDbEntity
  8
3
  6
Continuous
 62
    14
100
AcDbLine
 10
197.971349062026
 20
128.5340094008199
 30
0.0
 11
195.021349062026
 21
128.5340094008199
 31
0.0
  0
LINE
  5
13D
330
1F
100
AcDbEntity
  8
9
  6
DOT
 62
    14
100
AcDbLine
 10
195.021349062026
 20
127.4248427341533
 30
0.0
 11
193.221349062026
 21
127.4248427341533
 31
0.0
  0
LINE
  5
13E
330
1F
100
AcDbEntity
  8
9
  6
DOT
 62
    14
100
AcDbLine
 10
195.021349062026
 20
126.7898427341533
 30
0.0
 11
193.221349062026
 21
126.7898427341533
 31
0.0
  0
LINE
  5
13F
330
1F
100
AcDbEntity
  8
9
  6
DOT
 62
    14
100
AcDbLine
 10
195.021349062026
 20
124.8848427341533
 30
0.0
 11
193.221349062026
 21
124.8848427341533
 31
0.0
  0
LINE
  5
140
330
1F
100
AcDbEntity
  8
9
  6
DOT
 62
    14
100
AcDbLine
 10
195.021349062026
 20
124.2498427341533
 30
0.0
 11
193.221349062026
 21
124.2498427341533
 31
0.0
  0
LINE
  5
141
330
1F
100
AcDbEntity
  8
9
  6
DOT
 62
    14
100
AcDbLine
 10
195.021349062026
 20
122.3448427341532
 30
0.0
 11
193.221349062026
 21
122.3448427341532
 31
0.0
  0
LINE
  5
142
330
1F
100
AcDbEntity
  8
9
  6
DOT
 62
    14
100
AcDbLine
 10
195.021349062026
 20
121.7098427341533
 30
0.0
 11
193.221349062026
 21
121.7098427341533
 31
0.0
  0
LINE
  5
143
330
1F
100
AcDbEntity
  8
9
  6
DOT
 62
    14
100
AcDbLine
 10
195.021349062026
 20
119.8048427341533
 30
0.0
 11
193.221349062026
 21
119.8048427341533
 31
0.0
  0
LINE
  5
144
330
1F
100
AcDbEntity
  8
9
  6
DOT
 62
    14
100
AcDbLine
 10
195.021349062026
 20
119.1698427341533
 30
0.0
 11
193.221349062026
 21
119.1698427341533
 31
0.0
  0
LINE
  5
145
330
1F
100
AcDbEntity
  8
9
  6
DOT
 62
    14
100
AcDbLine
 10
195.021349062026
 20
117.2648427341533
 30
0.0
 11
193.221349062026
 21
117.2648427341533
 31
0.0
  0
LINE
  5
146
330
1F
100
AcDbEntity
  8
9
  6
DOT
 62
    14
100
AcDbLine
 10
195.021349062026
 20
116.6298427341533
 30
0.0
 11
193.221349062026
 21
116.6298427341533
 31
0.0
  0
LINE
  5
147
330
1F
100
AcDbEntity
  8
9
  6
DOT
 62
    14
100
AcDbLine
 10
195.021349062026
 20
114.7248427341533
 30
0.0
 11
193.221349062026
 21
114.7248427341533
 31
0.0
  0
LINE
  5
148
330
1F
100
AcDbEntity
  8
9
  6
DOT
 62
    14
100
AcDbLine
 10
195.021349062026
 20
114.0898427341533
 30
0.0
 11
193.221349062026
 21
114.0898427341533
 31
0.0
  0
LINE
  5
149
330
1F
100
AcDbEntity
  8
9
  6
DOT
 62
    14
100
AcDbLine
 10
195.021349062026
 20
129.3298427341533
 30
0.0
 11
193.221349062026
 21
129.3298427341533
 31
0.0
  0
INSERT
  5
151
330
1F
100
AcDbEntity
  8
0
100
AcDbBlockReference
  2
*G30
 10
0.0
 20
0.0
 30
0.0
  0
INSERT
  5
159
330
1F
100
AcDbEntity
  8
0
100
AcDbBlockReference
  2
*G31
 10
0.0
 20
0.0
 30
0.0
  0
INSERT
  5
161
330
1F
100
AcDbEntity
  8
0
100
AcDbBlockReference
  2
*G32
 10
0.0
 20
0.0
 30
0.0
  0
INSERT
  5
169
330
1F
100
AcDbEntity
  8
0
100
AcDbBlockReference
  2
*G33
 10
0.0
 20
0.0
 30
0.0
  0
INSERT
  5
171
330
1F
100
AcDbEntity
  8
0
100
AcDbBlockReference
  2
*G34
 10
0.0
 20
0.0
 30
0.0
  0
INSERT
  5
179
330
1F
100
AcDbEntity
  8
0
100
AcDbBlockReference
  2
*G35
 10
0.0
 20
0.0
 30
0.0
  0
LINE
  5
17A
330
1F
100
AcDbEntity
  8
9
  6
DOT
 62
    14
100
AcDbLine
 10
195.021349062026
 20
129.9648427341533
 30
0.0
 11
193.221349062026
 21
129.9673427341533
 31
0.0
  0
INSERT
  5
182
330
1F
100
AcDbEntity
  8
0
100
AcDbBlockReference
  2
*G36
 10
0.0
 20
0.0
 30
0.0
  0
INSERT
  5
18A
330
1F
100
AcDbEntity
  8
0
100
AcDbBlockReference
  2
*G37
 10
0.0
 20
0.0
 30
0.0
  0
LINE
  5
18B
330
1F
100
AcDbEntity
  8
9
  6
DOT
 62
    14
100
AcDbLine
 10
190.521349062026
 20
127.4248427341533
 30
0.0
 11
184.838849062026
 21
127.4248427341533
 31
0.0
  0
LINE
  5
18C
330
1F
100
AcDbEntity
  8
9
  6
DOT
 62
    14
100
AcDbLine
 10
190.521349062026
 20
126.7898427341533
 30
0.0
 11
184.838849062026
 21
126.7898427341533
 31
0.0
  0
LINE
  5
18D
330
1F
100
AcDbEntity
  8
9
  6
DOT
 62
    14
100
AcDbLine
 10
190.521349062026
 20
124.8848427341533
 30
0.0
 11
184.838849062026
 21
124.8848427341533
 31
0.0
  0
LINE
  5
18E
330
1F
100
AcDbEntity
  8
9
  6
DOT
 62
    14
100
AcDbLine
 10
190.521349062026
 20
124.2498427341533
 30
0.0
 11
184.838849062026
 21
124.2498427341533
 31
0.0
  0
LINE
  5
18F
330
1F
100
AcDbEntity
  8
9
  6
DOT
 62
    14
100
AcDbLine
 10
190.521349062026
 20
122.3448427341532
 30
0.0
 11
184.838849062026
 21
122.3448427341532
 31
0.0
  0
LINE
  5
190
330
1F
100
AcDbEntity
  8
9
  6
DOT
 62
    14
100
AcDbLine
 10
190.521349062026
 20
121.7098427341533
 30
0.0
 11
184.838849062026
 21
121.7098427341533
 31
0.0
  0
LINE
  5
191
330
1F
100
AcDbEntity
  8
9
  6
DOT
 62
    14
100
AcDbLine
 10
190.521349062026
 20
119.8048427341533
 30
0.0
 11
184.838849062026
 21
119.8048427341533
 31
0.0
  0
LINE
  5
192
330
1F
100
AcDbEntity
  8
9
  6
DOT
 62
    14
100
AcDbLine
 10
190.521349062026
 20
119.1698427341533
 30
0.0
 11
184.838849062026
 21
119.1698427341533
 31
0.0
  0
LINE
  5
193
330
1F
100
AcDbEntity
  8
9
  6
DOT
 62
    14
100
AcDbLine
 10
190.521349062026
 20
117.2648427341533
 30
0.0
 11
184.838849062026
 21
117.2648427341533
 31
0.0
  0
LINE
  5
194
330
1F
100
AcDbEntity
  8
9
  6
DOT
 62
    14
100
AcDbLine
 10
190.521349062026
 20
116.6298427341533
 30
0.0
 11
184.838849062026
 21
116.6298427341533
 31
0.0
  0
LINE
  5
195
330
1F
100
AcDbEntity
  8
9
  6
DOT
 62
    14
100
AcDbLine
 10
190.521349062026
 20
114.7248427341533
 30
0.0
 11
184.838849062026
 21
114.7248427341533
 31
0.0
  0
LINE
  5
196
330
1F
100
AcDbEntity
  8
9
  6
DOT
 62
    14
100
AcDbLine
 10
190.521349062026
 20
114.0898427341533
 30
0.0
 11
184.838849062026
 21
114.0898427341533
 31
0.0
  0
LINE
  5
197
330
1F
100
AcDbEntity
  8
9
  6
DOT
 62
    14
100
AcDbLine
 10
190.521349062026
 20
129.3298427341533
 30
0.0
 11
184.838849062026
 21
129.3298427341533
 31
0.0
  0
LINE
  5
198
330
1F
100
AcDbEntity
  8
9
  6
DOT
 62
    14
100
AcDbLine
 10
190.521349062026
 20
129.9673427341533
 30
0.0
 11
184.838849062026
 21
129.9673427341533
 31
0.0
  0
LINE
  5
199
330
1F
100
AcDbEntity
  8
9
  6
DOT
 62
    14
100
AcDbLine
 10
184.521349062026
 20
129.6473427341533
 30
0.0
 11
184.838849062026
 21
129.9673427341533
 31
0.0
  0
LINE
  5
19A
330
1F
100
AcDbEntity
  8
9
  6
DOT
 62
    14
100
AcDbLine
 10
184.521349062026
 20
129.6473427341533
 30
0.0
 11
184.838849062026
 21
129.3298427341533
 31
0.0
  0
LINE
  5
19B
330
1F
100
AcDbEntity
  8
9
  6
DOT
 62
    14
100
AcDbLine
 10
184.521349062026
 20
114.4073427341533
 30
0.0
 11
184.838849062026
 21
114.7248427341533
 31
0.0
  0
LINE
  5
19C
330
1F
100
AcDbEntity
  8
9
  6
DOT
 62
    14
100
AcDbLine
 10
184.521349062026
 20
114.4073427341533
 30
0.0
 11
184.838849062026
 21
114.0898427341533
 31
0.0
  0
LINE
  5
19D
330
1F
100
AcDbEntity
  8
9
  6
DOT
 62
    14
100
AcDbLine
 10
184.521349062026
 20
116.9473427341533
 30
0.0
 11
184.838849062026
 21
117.2648427341533
 31
0.0
  0
LINE
  5
19E
330
1F
100
AcDbEntity
  8
9
  6
DOT
 62
    14
100
AcDbLine
 10
184.521349062026
 20
116.9473427341533
 30
0.0
 11
184.838849062026
 21
116.6298427341533
 31
0.0
  0
LINE
  5
19F
330
1F
100
AcDbEntity
  8
9
  6
DOT
 62
    14
100
AcDbLine
 10
184.521349062026
 20
119.4873427341533
 30
0.0
 11
184.838849062026
 21
119.8048427341533
 31
0.0
  0
LINE
  5
1A0
330
1F
100
AcDbEntity
  8
9
  6
DOT
 62
    14
100
AcDbLine
 10
184.521349062026
 20
119.4873427341533
 30
0.0
 11
184.838849062026
 21
119.1698427341533
 31
0.0
  0
LINE
  5
1A1
330
1F
100
AcDbEntity
  8
9
  6
DOT
 62
    14
100
AcDbLine
 10
184.521349062026
 20
122.0273427341533
 30
0.0
 11
184.838849062026
 21
122.3448427341532
 31
0.0
  0
LINE
  5
1A2
330
1F
100
AcDbEntity
  8
9
  6
DOT
 62
    14
100
AcDbLine
 10
184.521349062026
 20
122.0273427341533
 30
0.0
 11
184.838849062026
 21
121.7098427341533
 31
0.0
  0
LINE
  5
1A3
330
1F
100
AcDbEntity
  8
9
  6
DOT
 62
    14
100
AcDbLine
 10
184.521349062026
 20
124.5673427341533
 30
0.0
 11
184.838849062026
 21
124.8848427341533
 31
0.0
  0
LINE
  5
1A4
330
1F
100
AcDbEntity
  8
9
  6
DOT
 62
    14
100
AcDbLine
 10
184.521349062026
 20
124.5673427341533
 30
0.0
 11
184.838849062026
 21
124.2498427341533
 31
0.0
  0
LINE
  5
1A5
330
1F
100
AcDbEntity
  8
9
  6
DOT
 62
    14
100
AcDbLine
 10
184.521349062026
 20
127.1073427341533
 30
0.0
 11
184.838849062026
 21
127.4248427341533
 31
0.0
  0
LINE
  5
1A6
330
1F
100
AcDbEntity
  8
9
  6
DOT
 62
    14
100
AcDbLine
 10
184.521349062026
 20
127.1073427341533
 30
0.0
 11
184.838849062026
 21
126.7898427341533
 31
0.0
  0
LINE
  5
1A7
330
1F
100
AcDbEntity
  8
9
  6
DOT
 62
    14
100
AcDbLine
 10
184.838849062026
 20
114.7248427341533
 30
0.0
 11
184.838849062026
 21
114.0898427341533
 31
0.0
  0
LINE
  5
1A8
330
1F
100
AcDbEntity
  8
9
  6
DOT
 62
    14
100
AcDbLine
 10
184.838849062026
 20
117.2648427341533
 30
0.0
 11
184.838849062026
 21
116.6298427341533
 31
0.0
  0
LINE
  5
1A9
330
1F
100
AcDbEntity
  8
9
  6
DOT
 62
    14
100
AcDbLine
 10
184.838849062026
 20
119.8048427341533
 30
0.0
 11
184.838849062026
 21
119.1698427341533
 31
0.0
  0
LINE
  5
1AA
330
1F
100
AcDbEntity
  8
9
  6
DOT
 62
    14
100
AcDbLine
 10
184.838849062026
 20
122.3448427341532
 30
0.0
 11
184.838849062026
 21
121.7098427341533
 31
0.0
  0
LINE
  5
1AB
330
1F
100
AcDbEntity
  8
9
  6
DOT
 62
    14
100
AcDbLine
 10
184.838849062026
 20
124.8848427341533
 30
0.0
 11
184.838849062026
 21
124.2498427341533
 31
0.0
  0
LINE
  5
1AC
330
1F
100
AcDbEntity
  8
9
  6
DOT
 62
    14
100
AcDbLine
 10
184.838849062026
 20
129.9673427341533
 30
0.0
 11
184.838849062026
 21
129.3323427341533
 31
0.0
  0
LINE
  5
1AD
330
1F
100
AcDbEntity
  8
9
  6
DOT
 62
    14
100
AcDbLine
 10
184.838849062026
 20
127.4248427341533
 30
0.0
 11
184.838849062026
 21
126.7898427341533
 31
0.0
  0
INSERT
  5
1B3
330
1F
100
AcDbEntity
  8
0
100
AcDbBlockReference
  2
*G38
 10
0.0
 20
0.0
 30
0.0
  0
LINE
  5
1B4
330
1F
100
AcDbEntity
  8
6
  6
Continuous
 62
    94
100
AcDbLine
 10
196.0224827477834
 20
114.2843160247169
 30
0.0
 11
194.5997640312872
 21
112.878659077332
 31
0.0
  0
LINE
  5
1B5
330
1F
100
AcDbEntity
  8
6
  6
Continuous
 62
    94
100
AcDbLine
 10
196.0224827477834
 20
114.2843160247169
 30
0.0
 11
194.0875437231657
 21
113.7783407575236
 31
0.0
  0
LINE
  5
1B6
330
1F
100
AcDbEntity
  8
6
  6
Continuous
 62
    94
100
AcDbLine
 10
194.5997640312872
 20
112.878659077332
 30
0.0
 11
194.0875437231657
 21
113.7783407575236
 31
0.0
  0
LINE
  5
1B7
330
1F
100
AcDbEntity
  8
6
  6
Continuous
 62
    94
100
AcDbLine
 10
195.6027755301442
 20
114.0453619978946
 30
0.0
 11
194.8914161718961
 21
113.3425335242022
 31
0.0
  0
LINE
  5
1B8
330
1F
100
AcDbEntity
  8
6
  6
Continuous
 62
    94
100
AcDbLine
 10
195.6027755301442
 20
114.0453619978946
 30
0.0
 11
194.6353060178353
 21
113.792374364298
 31
0.0
  0
LINE
  5
1B9
330
1F
100
AcDbEntity
  8
6
  6
Continuous
 62
    94
100
AcDbLine
 10
194.8914161718961
 20
113.3425335242022
 30
0.0
 11
194.6353060178353
 21
113.792374364298
 31
0.0
  0
POLYLINE
  5
1BA
330
1F
100
AcDbEntity
  8
6
  6
Continuous
 62
    94
100
AcDb2dPolyline
 66
     1
 10
0.0
 20
0.0
 30
0.0
  0
VERTEX
  5
1BC
330
1BA
100
AcDbEntity
  8
6
  6
Continuous
 62
    94
100
AcDbVertex
100
AcDb2dVertex
 10
196.0224827477834
 20
114.2843160247169
 30
0.0
  0
VERTEX
  5
1BD
330
1BA
100
AcDbEntity
  8
6
  6
Continuous
 62
    94
100
AcDbVertex
100
AcDb2dVertex
 10
172.8016784167697
 20
101.0638983913059
 30
0.0
  0
VERTEX
  5
1BE
330
1BA
100
AcDbEntity
  8
6
  6
Continuous
 62
    94
100
AcDbVertex
100
AcDb2dVertex
 10
136.5859011545878
 20
101.0638983913059
 30
0.0
  0
SEQEND
  5
1BB
330
1BA
100
AcDbEntity
  8
6
  6
Continuous
  0
LINE
  5
1BF
330
1F
100
AcDbEntity
  8
6
  6
Continuous
 62
    94
100
AcDbLine
 10
184.838849062026
 20
124.8848427341533
 30
0.0
 11
183.1355937406537
 21
125.9331372110141
 31
0.0
  0
LINE
  5
1C0
330
1F
100
AcDbEntity
  8
6
  6
Continuous
 62
    94
100
AcDbLine
 10
184.838849062026
 20
124.8848427341533
 30
0.0
 11
183.8879339230169
 21
126.6443200424478
 31
0.0
  0
LINE
  5
1C1
330
1F
100
AcDbEntity
  8
6
  6
Continuous
 62
    94
100
AcDbLine
 10
183.1355937406537
 20
125.9331372110141
 30
0.0
 11
183.8879339230169
 21
126.6443200424478
 31
0.0
  0
LINE
  5
1C2
330
1F
100
AcDbEntity
  8
6
  6
Continuous
 62
    94
100
AcDbLine
 10
184.5070777544783
 20
125.2358142072977
 30
0.0
 11
183.6554500937922
 21
125.7599614457281
 31
0.0
  0
LINE
  5
1C3
330
1F
100
AcDbEntity
  8
6
  6
Continuous
 62
    94
100
AcDbLine
 10
184.5070777544783
 20
125.2358142072977
 30
0.0
 11
184.0316201849738
 21
126.115552861445
 31
0.0
  0
LINE
  5
1C4
330
1F
100
AcDbEntity
  8
6
  6
Continuous
 62
    94
100
AcDbLine
 10
183.6554500937922
 20
125.7599614457281
 30
0.0
 11
184.0316201849738
 21
126.115552861445
 31
0.0
  0
POLYLINE
  5
1C5
330
1F
100
AcDbEntity
  8
6
  6
Continuous
 62
    94
100
AcDb2dPolyline
 66
     1
 10
0.0
 20
0.0
 30
0.0
  0
VERTEX
  5
1C7
330
1C5
100
AcDbEntity
  8
6
  6
Continuous
 62
    94
100
AcDbVertex
100
AcDb2dVertex
 10
184.838849062026
 20
124.8848427341533
 30
0.0
  0
VERTEX
  5
1C8
330
1C5
100
AcDbEntity
  8
6
  6
Continuous
 62
    94
100
AcDbVertex
100
AcDb2dVertex
 10
172.5234183524935
 20
137.9129882072562
 30
0.0
  0
VERTEX
  5
1C9
330
1C5
100
AcDbEntity
  8
6
  6
Continuous
 62
    94
100
AcDbVertex
100
AcDb2dVertex
 10
129.9851352898481
 20
137.9129882072562
 30
0.0
  0
SEQEND
  5
1C6
330
1C5
100
AcDbEntity
  8
6
  6
Continuous
  0
TEXT
  5
1CA
330
1F
100
AcDbEntity
  8
6
  6
Continuous
 62
    94
100
AcDbText
 10
129.9851352898481
 20
139.1129882072562
 30
0.0
 40
3.5
  1
付属ピンヘッダ（着脱可能）
100
AcDbText
  0
INSERT
  5
1D2
330
1F
100
AcDbEntity
  8
0
100
AcDbBlockReference
  2
*G39
 10
0.0
 20
0.0
 30
0.0
  0
INSERT
  5
1DA
330
1F
100
AcDbEntity
  8
0
100
AcDbBlockReference
  2
*G40
 10
0.0
 20
0.0
 30
0.0
  0
INSERT
  5
1E2
330
1F
100
AcDbEntity
  8
0
100
AcDbBlockReference
  2
*G41
 10
0.0
 20
0.0
 30
0.0
  0
LINE
  5
1E3
330
1F
100
AcDbEntity
  8
3
  6
Continuous
 62
    14
100
AcDbLine
 10
199.221349062026
 20
135.9373427341534
 30
0.0
 11
199.221349062026
 21
133.4373427341534
 31
0.0
  0
LINE
  5
1E4
330
1F
100
AcDbEntity
  8
6
  6
Continuous
 62
    94
100
AcDbLine
 10
203.7748263579978
 20
99.31649153504821
 30
0.0
 11
204.8950793451842
 21
100.973305720375
 31
0.0
  0
LINE
  5
1E5
330
1F
100
AcDbEntity
  8
6
  6
Continuous
 62
    94
100
AcDbLine
 10
203.7748263579978
 20
99.31649153504821
 30
0.0
 11
205.57340099623
 21
100.1912082152984
 31
0.0
  0
LINE
  5
1E6
330
1F
100
AcDbEntity
  8
6
  6
Continuous
 62
    94
100
AcDbLine
 10
204.8950793451842
 20
100.973305720375
 30
0.0
 11
205.57340099623
 21
100.1912082152984
 31
0.0
  0
LINE
  5
1E7
330
1F
100
AcDbEntity
  8
6
  6
Continuous
 62
    94
100
AcDbLine
 10
204.1396798111751
 20
99.63293289324534
 30
0.0
 11
204.6998063047683
 21
100.4613399859087
 31
0.0
  0
LINE
  5
1E8
330
1F
100
AcDbEntity
  8
6
  6
Continuous
 62
    94
100
AcDbLine
 10
204.1396798111751
 20
99.63293289324534
 30
0.0
 11
205.0389671302912
 21
100.0702912333705
 31
0.0
  0
LINE
  5
1E9
330
1F
100
AcDbEntity
  8
6
  6
Continuous
 62
    94
100
AcDbLine
 10
204.6998063047683
 20
100.4613399859087
 30
0.0
 11
205.0389671302912
 21
100.0702912333705
 31
0.0
  0
POLYLINE
  5
1EA
330
1F
100
AcDbEntity
  8
6
  6
Continuous
 62
    94
100
AcDb2dPolyline
 66
     1
 10
0.0
 20
0.0
 30
0.0
  0
VERTEX
  5
1EC
330
1EA
100
AcDbEntity
  8
6
  6
Continuous
 62
    94
100
AcDbVertex
100
AcDb2dVertex
 10
203.7748263579978
 20
99.31649153504821
 30
0.0
  0
VERTEX
  5
1ED
330
1EA
100
AcDbEntity
  8
6
  6
Continuous
 62
    94
100
AcDbVertex
100
AcDb2dVertex
 10
216.0021014419269
 20
109.9213398677512
 30
0.0
  0
VERTEX
  5
1EE
330
1EA
100
AcDbEntity
  8
6
  6
Continuous
 62
    94
100
AcDbVertex
100
AcDb2dVertex
 10
277.3812909012512
 20
109.9213398677512
 30
0.0
  0
SEQEND
  5
1EB
330
1EA
100
AcDbEntity
  8
6
  6
Continuous
  0
TEXT
  5
1EF
330
1F
100
AcDbEntity
  8
6
  6
Continuous
 62
    94
100
AcDbText
 10
221.7312909012512
 20
111.1213398677512
 30
0.0
 40
3.5
  1
FX10A-80P/8-SV1(HIROSE)
 41
0.7
100
AcDbText
  0
LINE
  5
1F0
330
1F
100
AcDbEntity
  8
6
  6
Continuous
 62
    94
100
AcDbLine
 10
203.7220724000716
 20
109.6202581780902
 30
0.0
 11
204.7905000318925
 21
111.310956967219
 31
0.0
  0
LINE
  5
1F1
330
1F
100
AcDbEntity
  8
6
  6
Continuous
 62
    94
100
AcDbLine
 10
203.7220724000716
 20
109.6202581780902
 30
0.0
 11
205.4927072658982
 21
110.5502324637128
 31
0.0
  0
POLYLINE
  5
1F2
330
1F
100
AcDbEntity
  8
6
  6
Continuous
 62
    94
100
AcDb2dPolyline
 66
     1
 10
0.0
 20
0.0
 30
0.0
  0
VERTEX
  5
1F4
330
1F2
100
AcDbEntity
  8
6
  6
Continuous
 62
    94
100
AcDbVertex
100
AcDb2dVertex
 10
203.7220724000716
 20
109.6202581780902
 30
0.0
  0
VERTEX
  5
1F5
330
1F2
100
AcDbEntity
  8
6
  6
Continuous
 62
    94
100
AcDbVertex
100
AcDb2dVertex
 10
209.0306570868467
 20
114.5204901966518
 30
0.0
  0
VERTEX
  5
1F6
330
1F2
100
AcDbEntity
  8
6
  6
Continuous
 62
    94
100
AcDbVertex
100
AcDb2dVertex
 10
216.8145856230142
 20
114.5204901966518
 30
0.0
  0
SEQEND
  5
1F3
330
1F2
100
AcDbEntity
  8
6
  6
Continuous
  0
TEXT
  5
1F7
330
1F
100
AcDbEntity
  8
6
  6
Continuous
 62
    94
100
AcDbText
 10
211.5645856230141
 20
115.7204901966518
 30
0.0
 40
3.5
  1
B面
100
AcDbText
  0
INSERT
  5
1FF
330
1F
100
AcDbEntity
  8
0
100
AcDbBlockReference
  2
*G42
 10
0.0
 20
0.0
 30
0.0
  0
LINE
  5
200
330
1F
100
AcDbEntity
  8
3
  6
Continuous
 62
    14
100
AcDbLine
 10
196.721349062026
 20
104.8073427341533
 30
0.0
 11
192.521349062026
 21
104.8073427341533
 31
0.0
  0
LINE
  5
201
330
1F
100
AcDbEntity
  8
3
  6
Continuous
 62
    14
100
AcDbLine
 10
192.221349062026
 20
105.1073427341533
 30
0.0
 11
192.521349062026
 21
104.8073427341533
 31
0.0
  0
LINE
  5
202
330
1F
100
AcDbEntity
  8
3
  6
Continuous
 62
    14
100
AcDbLine
 10
192.221349062026
 20
105.1073427341533
 30
0.0
 11
192.221349062026
 21
105.3073427341533
 31
0.0
  0
LINE
  5
203
330
1F
100
AcDbEntity
  8
3
  6
Continuous
 62
    14
100
AcDbLine
 10
196.721349062026
 20
105.6073427341533
 30
0.0
 11
192.521349062026
 21
105.6073427341533
 31
0.0
  0
LINE
  5
204
330
1F
100
AcDbEntity
  8
3
  6
Continuous
 62
    14
100
AcDbLine
 10
192.221349062026
 20
105.3073427341533
 30
0.0
 11
192.521349062026
 21
105.6073427341533
 31
0.0
  0
LINE
  5
205
330
1F
100
AcDbEntity
  8
3
  6
Continuous
 62
    14
100
AcDbLine
 10
196.721349062026
 20
102.2673427341536
 30
0.0
 11
192.521349062026
 21
102.2673427341536
 31
0.0
  0
LINE
  5
206
330
1F
100
AcDbEntity
  8
3
  6
Continuous
 62
    14
100
AcDbLine
 10
192.221349062026
 20
102.5673427341536
 30
0.0
 11
192.521349062026
 21
102.2673427341536
 31
0.0
  0
LINE
  5
207
330
1F
100
AcDbEntity
  8
3
  6
Continuous
 62
    14
100
AcDbLine
 10
192.221349062026
 20
102.5673427341536
 30
0.0
 11
192.221349062026
 21
102.7673427341536
 31
0.0
  0
LINE
  5
208
330
1F
100
AcDbEntity
  8
3
  6
Continuous
 62
    14
100
AcDbLine
 10
196.721349062026
 20
103.0673427341536
 30
0.0
 11
192.521349062026
 21
103.0673427341536
 31
0.0
  0
LINE
  5
209
330
1F
100
AcDbEntity
  8
3
  6
Continuous
 62
    14
100
AcDbLine
 10
192.221349062026
 20
102.7673427341536
 30
0.0
 11
192.521349062026
 21
103.0673427341536
 31
0.0
  0
LINE
  5
20A
330
1F
100
AcDbEntity
  8
3
  6
Continuous
 62
    14
100
AcDbLine
 10
192.521349062026
 20
102.2673427341536
 30
0.0
 11
192.521349062026
 21
103.0673427341536
 31
0.0
  0
LINE
  5
20B
330
1F
100
AcDbEntity
  8
3
  6
Continuous
 62
    14
100
AcDbLine
 10
192.521349062026
 20
104.8073427341533
 30
0.0
 11
192.521349062026
 21
105.6073427341533
 31
0.0
  0
INSERT
  5
213
330
1F
100
AcDbEntity
  8
0
100
AcDbBlockReference
  2
*G43
 10
0.0
 20
0.0
 30
0.0
  0
INSERT
  5
21B
330
1F
100
AcDbEntity
  8
0
100
AcDbBlockReference
  2
*G44
 10
0.0
 20
0.0
 30
0.0
  0
LINE
  5
21C
330
1F
100
AcDbEntity
  8
6
  6
Continuous
 62
    94
100
AcDbLine
 10
197.8257386453308
 20
137.7631935728875
 30
0.0
 11
195.8274979020252
 21
137.847062111644
 31
0.0
  0
LINE
  5
21D
330
1F
100
AcDbEntity
  8
6
  6
Continuous
 62
    94
100
AcDbLine
 10
197.8257386453308
 20
137.7631935728875
 30
0.0
 11
196.1371456681292
 21
138.8349462296817
 31
0.0
  0
POLYLINE
  5
21E
330
1F
100
AcDbEntity
  8
6
  6
Continuous
 62
    94
100
AcDb2dPolyline
 66
     1
 10
0.0
 20
0.0
 30
0.0
  0
VERTEX
  5
220
330
21E
100
AcDbEntity
  8
6
  6
Continuous
 62
    94
100
AcDbVertex
100
AcDb2dVertex
 10
197.8257386453308
 20
137.7631935728875
 30
0.0
  0
VERTEX
  5
221
330
21E
100
AcDbEntity
  8
6
  6
Continuous
 62
    94
100
AcDbVertex
100
AcDb2dVertex
 10
189.8988857974405
 20
140.2478294039206
 30
0.0
  0
VERTEX
  5
222
330
21E
100
AcDbEntity
  8
6
  6
Continuous
 62
    94
100
AcDbVertex
100
AcDb2dVertex
 10
183.634941574803
 20
140.2872252795347
 30
0.0
  0
SEQEND
  5
21F
330
21E
100
AcDbEntity
  8
6
  6
Continuous
  0
TEXT
  5
223
330
1F
100
AcDbEntity
  8
6
  6
Continuous
 62
    94
100
AcDbText
 10
183.6424885953531
 20
141.4872015470004
 30
0.0
 40
3.5
  1
A面
 50
359.6396539366125
100
AcDbText
  0
INSERT
  5
22F
330
1F
100
AcDbEntity
  8
0
100
AcDbBlockReference
  2
*G45
 10
0.0
 20
0.0
 30
0.0
  0
LINE
  5
230
330
1F
100
AcDbEntity
  8
3
  6
Continuous
 62
    14
100
AcDbLine
 10
97.70659730893651
 20
115.7406760674866
 30
0.0
 11
95.20659730893651
 21
115.7406760674866
 31
0.0
  0
LINE
  5
231
330
1F
100
AcDbEntity
  8
3
  6
Continuous
 62
    14
100
AcDbLine
 10
97.70659730893651
 20
116.0540094008199
 30
0.0
 11
95.20659730893651
 21
116.0540094008199
 31
0.0
  0
LINE
  5
232
330
1F
100
AcDbEntity
  8
3
  6
Continuous
 62
    14
100
AcDbLine
 10
97.70659730893651
 20
118.2806760674866
 30
0.0
 11
95.20659730893651
 21
118.2806760674866
 31
0.0
  0
LINE
  5
233
330
1F
100
AcDbEntity
  8
3
  6
Continuous
 62
    14
100
AcDbLine
 10
97.70659730893651
 20
118.5940094008199
 30
0.0
 11
95.20659730893651
 21
118.5940094008199
 31
0.0
  0
LINE
  5
234
330
1F
100
AcDbEntity
  8
3
  6
Continuous
 62
    14
100
AcDbLine
 10
97.70659730893651
 20
120.8206760674866
 30
0.0
 11
95.20659730893651
 21
120.8206760674866
 31
0.0
  0
LINE
  5
235
330
1F
100
AcDbEntity
  8
3
  6
Continuous
 62
    14
100
AcDbLine
 10
97.70659730893651
 20
121.1340094008199
 30
0.0
 11
95.20659730893651
 21
121.1340094008199
 31
0.0
  0
LINE
  5
236
330
1F
100
AcDbEntity
  8
3
  6
Continuous
 62
    14
100
AcDbLine
 10
97.70659730893651
 20
123.3606760674866
 30
0.0
 11
95.20659730893651
 21
123.3606760674866
 31
0.0
  0
LINE
  5
237
330
1F
100
AcDbEntity
  8
3
  6
Continuous
 62
    14
100
AcDbLine
 10
97.70659730893651
 20
123.6740094008199
 30
0.0
 11
95.20659730893651
 21
123.6740094008199
 31
0.0
  0
LINE
  5
238
330
1F
100
AcDbEntity
  8
3
  6
Continuous
 62
    14
100
AcDbLine
 10
97.70659730893651
 20
125.9006760674866
 30
0.0
 11
95.20659730893651
 21
125.9006760674866
 31
0.0
  0
LINE
  5
239
330
1F
100
AcDbEntity
  8
3
  6
Continuous
 62
    14
100
AcDbLine
 10
97.70659730893651
 20
126.2140094008199
 30
0.0
 11
95.20659730893651
 21
126.2140094008199
 31
0.0
  0
LINE
  5
23A
330
1F
100
AcDbEntity
  8
3
  6
Continuous
 62
    14
100
AcDbLine
 10
97.70659730893651
 20
128.4406760674866
 30
0.0
 11
95.20659730893651
 21
128.4406760674866
 31
0.0
  0
LINE
  5
23B
330
1F
100
AcDbEntity
  8
3
  6
Continuous
 62
    14
100
AcDbLine
 10
97.70659730893651
 20
128.7540094008199
 30
0.0
 11
95.20659730893651
 21
128.7540094008199
 31
0.0
  0
CIRCLE
  5
23C
330
1F
100
AcDbEntity
  8
3
  6
Continuous
 62
    14
100
AcDbCircle
 10
96.45659730893651
 20
129.8673427341533
 30
0.0
 40
0.8
  0
CIRCLE
  5
23D
330
1F
100
AcDbEntity
  8
3
  6
Continuous
 62
    14
100
AcDbCircle
 10
96.45659730893651
 20
127.3273427341533
 30
0.0
 40
0.8
  0
CIRCLE
  5
23E
330
1F
100
AcDbEntity
  8
3
  6
Continuous
 62
    14
100
AcDbCircle
 10
96.45659730893651
 20
124.7873427341533
 30
0.0
 40
0.8
  0
CIRCLE
  5
23F
330
1F
100
AcDbEntity
  8
3
  6
Continuous
 62
    14
100
AcDbCircle
 10
96.45659730893651
 20
122.2473427341533
 30
0.0
 40
0.8
  0
CIRCLE
  5
240
330
1F
100
AcDbEntity
  8
3
  6
Continuous
 62
    14
100
AcDbCircle
 10
96.45659730893651
 20
119.7073427341533
 30
0.0
 40
0.8
  0
CIRCLE
  5
241
330
1F
100
AcDbEntity
  8
3
  6
Continuous
 62
    14
100
AcDbCircle
 10
96.45659730893651
 20
117.1673427341533
 30
0.0
 40
0.8
  0
CIRCLE
  5
242
330
1F
100
AcDbEntity
  8
3
  6
Continuous
 62
    14
100
AcDbCircle
 10
96.45659730893651
 20
114.6273427341533
 30
0.0
 40
0.8
  0
CIRCLE
  5
243
330
1F
100
AcDbEntity
  8
3
  6
Continuous
 62
    14
100
AcDbCircle
 10
96.45659730893651
 20
129.8673427341533
 30
0.0
 40
0.5040936492050321
  0
CIRCLE
  5
244
330
1F
100
AcDbEntity
  8
3
  6
Continuous
 62
    14
100
AcDbCircle
 10
96.45659730893651
 20
122.2473427341533
 30
0.0
 40
0.5040936492050321
  0
CIRCLE
  5
245
330
1F
100
AcDbEntity
  8
3
  6
Continuous
 62
    14
100
AcDbCircle
 10
96.45659730893651
 20
119.7073427341533
 30
0.0
 40
0.5040936492050321
  0
CIRCLE
  5
246
330
1F
100
AcDbEntity
  8
3
  6
Continuous
 62
    14
100
AcDbCircle
 10
96.45659730893651
 20
117.1673427341533
 30
0.0
 40
0.5040936492050321
  0
CIRCLE
  5
247
330
1F
100
AcDbEntity
  8
3
  6
Continuous
 62
    14
100
AcDbCircle
 10
96.45659730893651
 20
114.6273427341533
 30
0.0
 40
0.5040936492050321
  0
CIRCLE
  5
248
330
1F
100
AcDbEntity
  8
3
  6
Continuous
 62
    14
100
AcDbCircle
 10
96.45659730893651
 20
127.3273427341533
 30
0.0
 40
0.5040936492050321
  0
CIRCLE
  5
249
330
1F
100
AcDbEntity
  8
3
  6
Continuous
 62
    14
100
AcDbCircle
 10
96.45659730893651
 20
124.7873427341533
 30
0.0
 40
0.5040936492050321
  0
LINE
  5
24A
330
1F
100
AcDbEntity
  8
5
  6
Continuous
 62
   174
100
AcDbLine
 10
94.62096081252328
 20
129.8673427341533
 30
0.0
 11
109.348324646946
 21
129.8673427341533
 31
0.0
  0
LINE
  5
24B
330
1F
100
AcDbEntity
  8
5
  6
Continuous
 62
   174
100
AcDbLine
 10
94.62096081252326
 20
114.6273427341533
 30
0.0
 11
109.1566035140484
 21
114.6273427341533
 31
0.0
  0
LINE
  5
24C
330
1F
100
AcDbEntity
  8
5
  6
DASHDOT
 62
   174
100
AcDbLine
 10
53.60597930277457
 20
118.4373427341533
 30
0.0
 11
104.833032442871
 21
118.4373427341533
 31
0.0
  0
DIMENSION
  5
260
330
1F
100
AcDbEntity
  8
2
  6
Continuous
 62
     5
100
AcDbDimension
  2
Dim1
 10
184.5213490620259
 20
86.85967130214915
 30
0.0
 11
188.371349062026
 21
88.45967130214915
 31
0.0
 70
   160
  1
<>
 71
     5
 42
-1.0
  3
Standard
100
AcDbAlignedDimension
 13
184.521349062026
 23
99.87610619469024
 33
0.0
 14
192.221349062026
 24
99.87610619469024
 34
0.0
100
AcDbRotatedDimension
1001
ACAD
1000
DSTYLE
1002
{
1070
   344
1005
0
1070
   343
1005
0
1070
   173
1070
     1
1070
   289
1070
     2
1070
   279
1070
     2
1070
   288
1070
     1
1070
    77
1070
     3
1070
   172
1070
     1
1070
   174
1070
     0
1070
    74
1070
     0
1070
    73
1070
     0
1070
   284
1070
     8
1070
    78
1070
     8
1070
   140
1040
4.0
1070
    40
1040
1.0
1070
    42
1040
2.0
1070
    44
1040
2.0
1070
    43
1040
10.0
1070
   271
1070
     2
1070
    41
1040
4.0
1002
}
  0
DIMENSION
  5
273
330
1F
100
AcDbEntity
  8
2
  6
Continuous
 62
     5
100
AcDbDimension
  2
Dim2
 10
192.2213490620259
 20
86.85967130214915
 30
0.0
 11
195.721349062026
 21
88.45967130214915
 31
0.0
 70
   160
  1
<>
 71
     5
 42
-1.0
  3
Standard
100
AcDbAlignedDimension
 13
192.221349062026
 23
99.87610619469024
 33
0.0
 14
199.221349062026
 24
99.65360303413398
 34
0.0
100
AcDbRotatedDimension
1001
ACAD
1000
DSTYLE
1002
{
1070
   344
1005
0
1070
   343
1005
0
1070
   173
1070
     1
1070
   289
1070
     2
1070
   279
1070
     2
1070
   288
1070
     1
1070
    77
1070
     3
1070
   172
1070
     1
1070
   174
1070
     0
1070
    74
1070
     0
1070
    73
1070
     0
1070
   284
1070
     8
1070
    78
1070
     8
1070
   140
1040
4.0
1070
    40
1040
1.0
1070
    42
1040
2.0
1070
    44
1040
2.0
1070
    43
1040
10.0
1070
   271
1070
     2
1070
    41
1040
4.0
1002
}
  0
DIMENSION
  5
28D
330
1F
100
AcDbEntity
  8
2
  6
Continuous
 62
     5
100
AcDbDimension
  2
Dim3
 10
199.2213490620259
 20
86.85967130214915
 30
0.0
 11
202.6463490620259
 21
82.85967130214915
 31
0.0
 70
   160
  1
<>
 71
     5
 42
-1.0
  3
Standard
100
AcDbAlignedDimension
 13
199.221349062026
 23
99.65360303413398
 33
0.0
 14
200.821349062026
 24
99.38734273415326
 34
0.0
100
AcDbRotatedDimension
1001
ACAD
1000
DSTYLE
1002
{
1070
   344
1005
0
1070
   343
1005
0
1070
   173
1070
     1
1070
   289
1070
     2
1070
   279
1070
     2
1070
   288
1070
     1
1070
    77
1070
     3
1070
   172
1070
     1
1070
   174
1070
     0
1070
    74
1070
     0
1070
    73
1070
     0
1070
   284
1070
     8
1070
    78
1070
     8
1070
   140
1040
4.0
1070
    40
1040
1.0
1070
    42
1040
2.0
1070
    44
1040
2.0
1070
    43
1040
10.0
1070
   271
1070
     2
1070
    41
1040
4.0
1002
}
  0
DIMENSION
  5
2A0
330
1F
100
AcDbEntity
  8
2
  6
Continuous
 62
     5
100
AcDbDimension
  2
Dim4
 10
200.8213490620259
 20
86.85967130214915
 30
0.0
 11
203.071349062026
 21
88.45967130214915
 31
0.0
 70
   160
  1
<>
 71
     5
 42
-1.0
  3
Standard
100
AcDbAlignedDimension
 13
200.821349062026
 23
99.38734273415326
 33
0.0
 14
205.321349062026
 24
96.87231352718075
 34
0.0
100
AcDbRotatedDimension
1001
ACAD
1000
DSTYLE
1002
{
1070
   344
1005
0
1070
   343
1005
0
1070
   173
1070
     1
1070
   289
1070
     2
1070
   279
1070
     2
1070
   288
1070
     1
1070
    77
1070
     3
1070
   172
1070
     1
1070
   174
1070
     0
1070
    74
1070
     0
1070
    73
1070
     0
1070
   284
1070
     8
1070
    78
1070
     8
1070
   140
1040
4.0
1070
    40
1040
1.0
1070
    42
1040
2.0
1070
    44
1040
2.0
1070
    43
1040
10.0
1070
   271
1070
     2
1070
    41
1040
4.0
1002
}
  0
LINE
  5
2A1
330
1F
100
AcDbEntity
  8
2
  6
Continuous
 62
     5
100
AcDbLine
 10
200.0213490620259
 20
86.85967130214915
 30
0.0
 11
200.0213490620259
 21
81.25967130214916
 31
0.0
  0
LINE
  5
2A2
330
1F
100
AcDbEntity
  8
2
  6
Continuous
 62
     5
100
AcDbLine
 10
200.0213490620259
 20
81.25967130214916
 30
0.0
 11
205.2713490620259
 21
81.25967130214916
 31
0.0
  0
DIMENSION
  5
2B6
330
1F
100
AcDbEntity
  8
2
  6
Continuous
 62
     5
100
AcDbDimension
  2
Dim5
 10
76.99659730893633
 20
84.48865382800484
 30
0.0
 11
87.38439026504908
 21
86.08865382800484
 31
0.0
 70
   160
  1
<>
 71
     5
 42
-1.0
  3
Standard
100
AcDbAlignedDimension
 13
76.99659730893642
 23
94.69820471208038
 33
0.0
 14
98.9965973089365
 24
95.09496961747848
 34
0.0
100
AcDbRotatedDimension
1001
ACAD
1000
DSTYLE
1002
{
1070
   344
1005
0
1070
   343
1005
0
1070
   173
1070
     1
1070
   289
1070
     2
1070
   279
1070
     2
1070
   288
1070
     1
1070
    77
1070
     3
1070
   172
1070
     1
1070
   174
1070
     0
1070
    74
1070
     0
1070
    73
1070
     0
1070
   284
1070
     8
1070
    78
1070
     8
1070
   140
1040
4.0
1070
    40
1040
1.0
1070
    42
1040
2.0
1070
    44
1040
2.0
1070
    43
1040
10.0
1070
   271
1070
     2
1070
    41
1040
4.0
1002
}
  0
DIMENSION
  5
2CA
330
1F
100
AcDbEntity
  8
2
  6
Continuous
 62
     5
100
AcDbDimension
  2
Dim6
 10
55.99659730893633
 20
84.46163628414513
 30
0.0
 11
67.44736703776789
 21
86.06163628414512
 31
0.0
 70
   160
  1
<>
 71
     5
 42
-1.0
  3
Standard
100
AcDbAlignedDimension
 13
55.99659730893639
 23
93.9821041204024
 33
0.0
 14
76.99659730893642
 24
95.7873427341533
 34
0.0
100
AcDbRotatedDimension
1001
ACAD
1000
DSTYLE
1002
{
1070
   344
1005
0
1070
   343
1005
0
1070
   173
1070
     1
1070
   289
1070
     2
1070
   279
1070
     2
1070
   288
1070
     1
1070
    77
1070
     3
1070
   172
1070
     1
1070
   174
1070
     0
1070
    74
1070
     0
1070
    73
1070
     0
1070
   284
1070
     8
1070
    78
1070
     8
1070
   140
1040
4.0
1070
    40
1040
1.0
1070
    42
1040
2.0
1070
    44
1040
2.0
1070
    43
1040
10.0
1070
   271
1070
     2
1070
    41
1040
4.0
1002
}
  0
DIMENSION
  5
2DE
330
1F
100
AcDbEntity
  8
2
  6
Continuous
 62
     5
100
AcDbDimension
  2
Dim7
 10
43.78580471758137
 20
140.4373427341534
 30
0.0
 11
42.18580471758141
 21
118.4416149888641
 31
0.0
 70
   160
  1
<>
 71
     5
 42
-1.0
  3
Standard
100
AcDbAlignedDimension
 13
74.99659730893642
 23
140.4373427341532
 33
0.0
 14
76.34659730893641
 24
96.4373427341533
 34
0.0
 50
89.99999999999991
100
AcDbRotatedDimension
1001
ACAD
1000
DSTYLE
1002
{
1070
   344
1005
0
1070
   343
1005
0
1070
   173
1070
     1
1070
   289
1070
     2
1070
   279
1070
     2
1070
   288
1070
     1
1070
    77
1070
     3
1070
   172
1070
     1
1070
   174
1070
     0
1070
    74
1070
     0
1070
    73
1070
     0
1070
   284
1070
     8
1070
    78
1070
     8
1070
   140
1040
4.0
1070
    40
1040
1.0
1070
    42
1040
2.0
1070
    44
1040
2.0
1070
    43
1040
10.0
1070
   271
1070
     2
1070
    41
1040
4.0
1002
}
  0
INSERT
  5
2EE
330
1F
100
AcDbEntity
  8
0
100
AcDbBlockReference
  2
Dim8
 10
0.0
 20
0.0
 30
0.0
  0
DIMENSION
  5
302
330
1F
100
AcDbEntity
  8
2
  6
Continuous
 62
     5
100
AcDbDimension
  2
Dim9
 10
51.25056342182684
 20
137.4373427341534
 30
0.0
 11
49.65056342182687
 21
118.5307233536708
 31
0.0
 70
   160
  1
<>
 71
     5
 42
-1.0
  3
Standard
100
AcDbAlignedDimension
 13
57.99659730893639
 23
137.4373427341533
 33
0.0
 14
56.49659730893639
 24
99.43734273415329
 34
0.0
 50
89.99999999999989
100
AcDbRotatedDimension
1001
ACAD
1000
DSTYLE
1002
{
1070
   344
1005
0
1070
   343
1005
0
1070
   173
1070
     1
1070
   289
1070
     2
1070
   279
1070
     2
1070
   288
1070
     1
1070
    77
1070
     3
1070
   172
1070
     1
1070
   174
1070
     0
1070
    74
1070
     0
1070
    73
1070
     0
1070
   284
1070
     8
1070
    78
1070
     8
1070
   140
1040
4.0
1070
    40
1040
1.0
1070
    42
1040
2.0
1070
    44
1040
2.0
1070
    43
1040
10.0
1070
   271
1070
     2
1070
    41
1040
4.0
1002
}
  0
DIMENSION
  5
316
330
1F
100
AcDbEntity
  8
2
  6
Continuous
 62
     5
100
AcDbDimension
  2
Dim10
 10
55.99659730893633
 20
67.4048226458036
 30
0.0
 11
77.49659730893639
 21
69.0048226458036
 31
0.0
 70
   160
  1
<>
 71
     5
 42
-1.0
  3
Standard
100
AcDbAlignedDimension
 13
55.99659730893639
 23
107.8385068563299
 33
0.0
 14
98.9965973089365
 24
108.116401593172
 34
0.0
100
AcDbRotatedDimension
1001
ACAD
1000
DSTYLE
1002
{
1070
   344
1005
0
1070
   343
1005
0
1070
   173
1070
     1
1070
   289
1070
     2
1070
   279
1070
     2
1070
   288
1070
     1
1070
    77
1070
     3
1070
   172
1070
     1
1070
   174
1070
     0
1070
    74
1070
     0
1070
    73
1070
     0
1070
   284
1070
     8
1070
    78
1070
     8
1070
   140
1040
4.0
1070
    40
1040
1.0
1070
    42
1040
2.0
1070
    44
1040
2.0
1070
    43
1040
10.0
1070
   271
1070
     2
1070
    41
1040
4.0
1002
}
  0
DIMENSION
  5
32A
330
1F
100
AcDbEntity
  8
2
  6
Continuous
 62
     5
100
AcDbDimension
  2
Dim11
 10
37.5986888043022
 20
145.4373427341535
 30
0.0
 11
35.9986888043022
 21
118.5330335970197
 31
0.0
 70
   160
  1
<>
 71
     5
 42
-1.0
  3
Standard
100
AcDbAlignedDimension
 13
62.1339489453333
 23
145.4373427341534
 33
0.0
 14
63.80131736638599
 24
91.43734273415352
 34
0.0
 50
89.99999999999991
100
AcDbRotatedDimension
1001
ACAD
1000
DSTYLE
1002
{
1070
   344
1005
0
1070
   343
1005
0
1070
   173
1070
     1
1070
   289
1070
     2
1070
   279
1070
     2
1070
   288
1070
     1
1070
    77
1070
     3
1070
   172
1070
     1
1070
   174
1070
     0
1070
    74
1070
     0
1070
    73
1070
     0
1070
   284
1070
     8
1070
    78
1070
     8
1070
   140
1040
4.0
1070
    40
1040
1.0
1070
    42
1040
2.0
1070
    44
1040
2.0
1070
    43
1040
10.0
1070
   271
1070
     2
1070
    41
1040
4.0
1002
}
  0
DIMENSION
  5
33E
330
1F
100
AcDbEntity
  8
2
  6
Continuous
 62
     5
100
AcDbDimension
  2
Dim12
 10
55.99659730893619
 20
73.05612310105278
 30
0.0
 11
52.21111307602196
 21
74.65612310105277
 31
0.0
 70
   160
  1
<>
 71
     5
 42
-1.0
  3
Standard
100
AcDbAlignedDimension
 13
55.99659730893639
 23
97.66447176861064
 33
0.0
 14
57.99659730893639
 24
97.29394545282116
 34
0.0
100
AcDbRotatedDimension
1001
ACAD
1000
DSTYLE
1002
{
1070
   344
1005
0
1070
   343
1005
0
1070
   173
1070
     1
1070
   289
1070
     2
1070
   279
1070
     2
1070
   288
1070
     1
1070
    77
1070
     3
1070
   172
1070
     1
1070
   174
1070
     0
1070
    74
1070
     0
1070
    73
1070
     0
1070
   284
1070
     8
1070
    78
1070
     8
1070
   140
1040
4.0
1070
    40
1040
1.0
1070
    42
1040
2.0
1070
    44
1040
2.0
1070
    43
1040
10.0
1070
   271
1070
     2
1070
    41
1040
4.0
1002
}
  0
DIMENSION
  5
351
330
1F
100
AcDbEntity
  8
2
  6
Continuous
 62
     5
100
AcDbDimension
  2
Dim13
 10
57.99659730893619
 20
73.05612310105278
 30
0.0
 11
76.99659730893626
 21
74.65612310105277
 31
0.0
 70
   160
  1
<>
 71
     5
 42
-1.0
  3
Standard
100
AcDbAlignedDimension
 13
57.99659730893639
 23
97.29394545282116
 33
0.0
 14
95.99659730893644
 24
91.98517352299662
 34
0.0
100
AcDbRotatedDimension
1001
ACAD
1000
DSTYLE
1002
{
1070
   344
1005
0
1070
   343
1005
0
1070
   173
1070
     1
1070
   289
1070
     2
1070
   279
1070
     2
1070
   288
1070
     1
1070
    77
1070
     3
1070
   172
1070
     1
1070
   174
1070
     0
1070
    74
1070
     0
1070
    73
1070
     0
1070
   284
1070
     8
1070
    78
1070
     8
1070
   140
1040
4.0
1070
    40
1040
1.0
1070
    42
1040
2.0
1070
    44
1040
2.0
1070
    43
1040
10.0
1070
   271
1070
     2
1070
    41
1040
4.0
1002
}
  0
DIMENSION
  5
364
330
1F
100
AcDbEntity
  8
2
  6
Continuous
 62
     5
100
AcDbDimension
  2
Dim14
 10
95.9965973089363
 20
73.05612310105278
 30
0.0
 11
104.3109535632622
 21
74.65612310105277
 31
0.0
 70
   160
  1
<>
 71
     5
 42
-1.0
  3
Standard
100
AcDbAlignedDimension
 13
95.99659730893644
 23
91.98517352299662
 33
0.0
 14
98.99659730893644
 24
95.25605071597906
 34
0.0
100
AcDbRotatedDimension
1001
ACAD
1000
DSTYLE
1002
{
1070
   344
1005
0
1070
   343
1005
0
1070
   173
1070
     1
1070
   289
1070
     2
1070
   279
1070
     2
1070
   288
1070
     1
1070
    77
1070
     3
1070
   172
1070
     1
1070
   174
1070
     0
1070
    74
1070
     0
1070
    73
1070
     0
1070
   284
1070
     8
1070
    78
1070
     8
1070
   140
1040
4.0
1070
    40
1040
1.0
1070
    42
1040
2.0
1070
    44
1040
2.0
1070
    43
1040
10.0
1070
   271
1070
     2
1070
    41
1040
4.0
1002
}
  0
DIMENSION
  5
378
330
1F
100
AcDbEntity
  8
5
  6
Continuous
 62
   174
100
AcDbDimension
  2
Dim15
 10
77.49659730893653
 20
152.3029611737342
 30
0.0
 11
86.9765973089365
 21
153.9029611737342
 31
0.0
 70
   160
  1
<>
 71
     5
 42
-1.0
  3
Standard
100
AcDbAlignedDimension
 13
77.4965973089365
 23
132.821781533258
 33
0.0
 14
96.45659730893651
 24
130.0873427341533
 34
0.0
100
AcDbRotatedDimension
1001
ACAD
1000
DSTYLE
1002
{
1070
   344
1005
0
1070
   343
1005
0
1070
   173
1070
     1
1070
   289
1070
     2
1070
   279
1070
     2
1070
   288
1070
     1
1070
    77
1070
     3
1070
   172
1070
     1
1070
   174
1070
     0
1070
    74
1070
     0
1070
    73
1070
     0
1070
   284
1070
     8
1070
    78
1070
     8
1070
   140
1040
4.0
1070
    40
1040
1.0
1070
    42
1040
2.0
1070
    44
1040
2.0
1070
    43
1040
10.0
1070
   271
1070
     2
1070
    41
1040
4.0
1002
}
  0
INSERT
  5
393
330
1F
100
AcDbEntity
  8
0
100
AcDbBlockReference
  2
Dim16
 10
0.0
 20
0.0
 30
0.0
  0
INSERT
  5
3A6
330
1F
100
AcDbEntity
  8
0
100
AcDbBlockReference
  2
Dim17
 10
0.0
 20
0.0
 30
0.0
  0
INSERT
  5
3B9
330
1F
100
AcDbEntity
  8
0
100
AcDbBlockReference
  2
Dim18
 10
0.0
 20
0.0
 30
0.0
  0
LINE
  5
3BA
330
1F
100
AcDbEntity
  8
5
  6
DASHDOT
 62
   174
100
AcDbLine
 10
109.1566035140484
 20
116.5323427341532
 30
0.0
 11
113.9566035140484
 21
116.5323427341532
 31
0.0
  0
LINE
  5
3BB
330
1F
100
AcDbEntity
  8
5
  6
DASHDOT
 62
   174
100
AcDbLine
 10
113.9566035140484
 20
116.5323427341532
 30
0.0
 11
113.9566035140484
 21
123.5323427341532
 31
0.0
  0
DIMENSION
  5
3CF
330
1F
100
AcDbEntity
  8
2
  6
Continuous
 62
     5
100
AcDbDimension
  2
Dim19
 10
119.942287229058
 20
142.4373427341526
 30
0.0
 11
118.342287229058
 21
118.4373427341526
 31
0.0
 70
   160
  1
<>
 71
     5
 42
-1.0
  3
Standard
100
AcDbAlignedDimension
 13
95.99659730893639
 23
142.4373427341533
 33
0.0
 14
95.99659730893644
 24
94.4373427341533
 34
0.0
 50
89.9999999999999
100
AcDbRotatedDimension
1001
ACAD
1000
DSTYLE
1002
{
1070
   344
1005
0
1070
   343
1005
0
1070
   173
1070
     1
1070
   289
1070
     2
1070
   279
1070
     2
1070
   288
1070
     1
1070
    77
1070
     3
1070
   172
1070
     1
1070
   174
1070
     0
1070
    74
1070
     0
1070
    73
1070
     0
1070
   284
1070
     8
1070
    78
1070
     8
1070
   140
1040
4.0
1070
    40
1040
1.0
1070
    42
1040
2.0
1070
    44
1040
2.0
1070
    43
1040
10.0
1070
   271
1070
     2
1070
    41
1040
4.0
1002
}
  0
INSERT
  5
3D7
330
1F
100
AcDbEntity
  8
0
100
AcDbBlockReference
  2
*G65
 10
0.0
 20
0.0
 30
0.0
  0
LINE
  5
3D8
330
1F
100
AcDbEntity
  8
128
  6
Continuous
 62
     7
100
AcDbLine
 10
214.3888200390425
 20
8.778067181401909
 30
0.0
 11
214.3888200390425
 21
38.77806718140191
 31
0.0
  0
TEXT
  5
3D9
330
1F
100
AcDbEntity
  8
128
  6
Continuous
 62
     7
100
AcDbText
 10
215.6211770501126
 20
33.77806718140191
 30
0.0
 40
4.0
  1
TITLE
 41
0.5
100
AcDbText
  0
TEXT
  5
3DA
330
1F
100
AcDbEntity
  8
128
  6
Continuous
 62
     7
100
AcDbText
 10
215.6211770501126
 20
33.77806718140191
 30
0.0
 40
4.0
  1
TITLE
 41
0.5
100
AcDbText
  0
LINE
  5
3DB
330
1F
100
AcDbEntity
  8
128
  6
Continuous
 62
     7
100
AcDbLine
 10
199.3888200390425
 20
8.778067181401909
 30
0.0
 11
199.3888200390425
 21
38.77806718140191
 31
0.0
  0
LINE
  5
3DC
330
1F
100
AcDbEntity
  8
128
  6
Continuous
 62
     7
100
AcDbLine
 10
199.3888200390425
 20
23.77806718140191
 30
0.0
 11
214.3888200390425
 21
23.77806718140191
 31
0.0
  0
TEXT
  5
3DD
330
1F
100
AcDbEntity
  8
128
  6
Continuous
 62
     7
100
AcDbText
 10
200.7084983139503
 20
18.77806718140191
 30
0.0
 40
4.0
  1
SIZE
 41
0.5
100
AcDbText
  0
LINE
  5
3DE
330
1F
100
AcDbEntity
  8
128
  6
Continuous
 62
     7
100
AcDbLine
 10
179.3888200390425
 20
28.77806718140191
 30
0.0
 11
179.3888200390425
 21
8.778067181401909
 31
0.0
  0
TEXT
  5
3DF
330
1F
100
AcDbEntity
  8
128
  6
Continuous
 62
     7
100
AcDbText
 10
180.4521964228064
 20
23.77806718140191
 30
0.0
 40
4.0
  1
DWG
 41
0.5
100
AcDbText
  0
LINE
  5
3E0
330
1F
100
AcDbEntity
  8
128
  6
Continuous
 62
     7
100
AcDbLine
 10
199.3888200390425
 20
28.77806718140191
 30
0.0
 11
159.3888200390425
 21
28.77806718140191
 31
0.0
  0
LINE
  5
3E1
330
1F
100
AcDbEntity
  8
128
  6
Continuous
 62
     7
100
AcDbLine
 10
199.3888200390425
 20
28.77806718140191
 30
0.0
 11
159.3888200390425
 21
28.77806718140191
 31
0.0
  0
TEXT
  5
3E2
330
1F
100
AcDbEntity
  8
128
  6
Continuous
 62
     7
100
AcDbText
 10
160.7113292641348
 20
23.77806718140191
 30
0.0
 40
4.0
  1
CHK
 41
0.5
100
AcDbText
  0
LINE
  5
3E3
330
1F
100
AcDbEntity
  8
128
  6
Continuous
 62
     7
100
AcDbLine
 10
271.8888200390425
 20
21.27806718140191
 30
0.0
 11
271.8888200390425
 21
8.941123464124459
 31
0.0
  0
LINE
  5
3E4
330
1F
100
AcDbEntity
  8
128
  6
Continuous
 62
     7
100
AcDbLine
 10
214.3888200390425
 20
21.27806718140191
 30
0.0
 11
284.3888200390425
 21
21.27806718140191
 31
0.0
  0
INSERT
  5
3EC
330
1F
100
AcDbEntity
  8
0
100
AcDbBlockReference
  2
*G66
 10
0.0
 20
0.0
 30
0.0
  0
TEXT
  5
3ED
330
1F
100
AcDbEntity
  8
128
  6
Continuous
 62
     7
100
AcDbText
 10
273.2726934246514
 20
16.27806718140191
 30
0.0
 40
4.0
  1
REV
 41
0.5
100
AcDbText
  0
TEXT
  5
3EE
330
1F
100
AcDbEntity
  8
128
  6
Continuous
 62
     7
100
AcDbText
 10
215.9648002050942
 20
16.27806718140191
 30
0.0
 40
4.0
  1
DWG NO
 41
0.5
100
AcDbText
  0
LINE
  5
3EF
330
1F
100
AcDbEntity
  8
128
  6
Continuous
 62
     7
100
AcDbLine
 10
168.0616156397718
 20
33.07864052060897
 30
0.0
 11
167.3036797721387
 21
33.07864052060897
 31
0.0
  0
ARC
  5
3F0
330
1F
100
AcDbEntity
  8
128
  6
Continuous
 62
     7
100
AcDbCircle
 10
167.3036836080212
 20
33.6827191394264
 30
0.0
 40
0.6040786188173956
100
AcDbArc
 50
165.9641550000016
 51
269.9997040000056
  0
LINE
  5
3F1
330
1F
100
AcDbEntity
  8
128
  6
Continuous
 62
     7
100
AcDbLine
 10
167.4965172593606
 20
36.88431548898113
 30
0.0
 11
166.7176374730403
 21
33.82922683728911
 31
0.0
  0
LINE
  5
3F2
330
1F
100
AcDbEntity
  8
128
  6
Continuous
 62
     7
100
AcDbLine
 10
169.4619275775357
 20
32.03504647996867
 30
0.0
 11
170.6700809792881
 21
32.03504647996867
 31
0.0
  0
LINE
  5
3F3
330
1F
100
AcDbEntity
  8
128
  6
Continuous
 62
     7
100
AcDbLine
 10
174.5965785760122
 20
32.03504647996867
 30
0.0
 11
173.2676063817905
 21
32.03504647996867
 31
0.0
  0
LINE
  5
3F4
330
1F
100
AcDbEntity
  8
128
  6
Continuous
 62
     7
100
AcDbLine
 10
175.8047281418819
 20
36.86766008697764
 30
0.0
 11
174.5600417947863
 21
36.86766008697764
 31
0.0
  0
LINE
  5
3F5
330
1F
100
AcDbEntity
  8
128
  6
Continuous
 62
     7
100
AcDbLine
 10
170.6700848151706
 20
36.86766008697764
 30
0.0
 11
171.841701435697
 21
36.86766008697764
 31
0.0
  0
LINE
  5
3F6
330
1F
100
AcDbEntity
  8
128
  6
Continuous
 62
     7
100
AcDbLine
 10
195.6881557256095
 20
32.63912893466856
 30
0.0
 11
195.3861183341422
 21
32.03504647996867
 31
0.0
  0
LINE
  5
3F7
330
1F
100
AcDbEntity
  8
128
  6
Continuous
 62
     7
100
AcDbLine
 10
195.6881557256095
 20
32.63912893466856
 30
0.0
 11
197.1228371709623
 21
32.63912893466856
 31
0.0
  0
LINE
  5
3F8
330
1F
100
AcDbEntity
  8
128
  6
Continuous
 62
     7
100
AcDbLine
 10
196.1412156486932
 20
33.54524110907089
 30
0.0
 11
197.0095673953383
 21
33.54524110907089
 31
0.0
  0
LINE
  5
3F9
330
1F
100
AcDbEntity
  8
128
  6
Continuous
 62
     7
100
AcDbLine
 10
197.0095673953383
 20
33.54524110907089
 30
0.0
 11
196.8358978131858
 21
34.93461310982097
 31
0.0
  0
LINE
  5
3FA
330
1F
100
AcDbEntity
  8
128
  6
Continuous
 62
     7
100
AcDbLine
 10
196.8358978131858
 20
34.93461310982097
 30
0.0
 11
196.1412156486932
 21
33.54524110907089
 31
0.0
  0
LINE
  5
3FB
330
1F
100
AcDbEntity
  8
128
  6
Continuous
 62
     7
100
AcDbLine
 10
196.5942679000118
 20
36.86766008697764
 30
0.0
 11
197.802421301764
 21
36.86766008697764
 31
0.0
  0
LINE
  5
3FC
330
1F
100
AcDbEntity
  8
128
  6
Continuous
 62
     7
100
AcDbLine
 10
194.1779649323898
 20
32.03504647996867
 30
0.0
 11
196.5942679000118
 21
36.86766008697764
 31
0.0
  0
LINE
  5
3FD
330
1F
100
AcDbEntity
  8
128
  6
Continuous
 62
     7
100
AcDbLine
 10
194.1779649323898
 20
32.03504647996867
 30
0.0
 11
195.3861183341422
 21
32.03504647996867
 31
0.0
  0
LINE
  5
3FE
330
1F
100
AcDbEntity
  8
128
  6
Continuous
 62
     7
100
AcDbLine
 10
193.1623689984339
 20
35.96154407669285
 30
0.0
 11
191.954211760799
 21
35.96154407669285
 31
0.0
  0
LINE
  5
3FF
330
1F
100
AcDbEntity
  8
128
  6
Continuous
 62
     7
100
AcDbLine
 10
193.1623689984339
 20
35.96154791257531
 30
0.0
 11
192.4261480618788
 21
32.03504647996867
 31
0.0
  0
LINE
  5
400
330
1F
100
AcDbEntity
  8
128
  6
Continuous
 62
     7
100
AcDbLine
 10
194.3705108925384
 20
35.96154407669285
 30
0.0
 11
193.6343014636309
 21
32.03504647996867
 31
0.0
  0
LINE
  5
401
330
1F
100
AcDbEntity
  8
128
  6
Continuous
 62
     7
100
AcDbLine
 10
194.3705108925384
 20
35.96154407669285
 30
0.0
 11
195.5786681301731
 21
35.96154407669285
 31
0.0
  0
LINE
  5
402
330
1F
100
AcDbEntity
  8
128
  6
Continuous
 62
     7
100
AcDbLine
 10
195.5786681301731
 20
35.96154407669285
 30
0.0
 11
195.7485632039029
 21
36.86766008697764
 31
0.0
  0
LINE
  5
403
330
1F
100
AcDbEntity
  8
128
  6
Continuous
 62
     7
100
AcDbLine
 10
191.954211760799
 20
35.96154407669285
 30
0.0
 11
192.1241106704114
 21
36.86766008697764
 31
0.0
  0
LINE
  5
404
330
1F
100
AcDbEntity
  8
128
  6
Continuous
 62
     7
100
AcDbLine
 10
194.5404136380333
 20
36.86766008697764
 30
0.0
 11
195.7485632039029
 21
36.86766008697764
 31
0.0
  0
LINE
  5
405
330
1F
100
AcDbEntity
  8
128
  6
Continuous
 62
     7
100
AcDbLine
 10
192.1241106704114
 20
36.86766008697764
 30
0.0
 11
193.3322640721636
 21
36.86766008697764
 31
0.0
  0
LINE
  5
406
330
1F
100
AcDbEntity
  8
128
  6
Continuous
 62
     7
100
AcDbLine
 10
192.4261480618788
 20
32.03504647996867
 30
0.0
 11
193.6343014636309
 21
32.03504647996867
 31
0.0
  0
LINE
  5
407
330
1F
100
AcDbEntity
  8
128
  6
Continuous
 62
     7
100
AcDbLine
 10
194.5404136380333
 20
36.86766008697764
 30
0.0
 11
193.3322640721636
 21
36.86766008697764
 31
0.0
  0
LINE
  5
408
330
1F
100
AcDbEntity
  8
128
  6
Continuous
 62
     7
100
AcDbLine
 10
190.6592369935595
 20
32.63912893466856
 30
0.0
 11
190.7347425055437
 21
32.03504647996867
 31
0.0
  0
LINE
  5
409
330
1F
100
AcDbEntity
  8
128
  6
Continuous
 62
     7
100
AcDbLine
 10
189.2245555482065
 20
32.63912893466856
 30
0.0
 11
188.9225181567392
 21
32.03504647996867
 31
0.0
  0
LINE
  5
40A
330
1F
100
AcDbEntity
  8
128
  6
Continuous
 62
     7
100
AcDbLine
 10
189.2245555482065
 20
32.63912893466856
 30
0.0
 11
190.6592369935595
 21
32.63912893466856
 31
0.0
  0
LINE
  5
40B
330
1F
100
AcDbEntity
  8
128
  6
Continuous
 62
     7
100
AcDbLine
 10
189.6776116354076
 20
33.54524110907089
 30
0.0
 11
190.5459672179353
 21
33.54524110907089
 31
0.0
  0
LINE
  5
40C
330
1F
100
AcDbEntity
  8
128
  6
Continuous
 62
     7
100
AcDbLine
 10
190.5459672179353
 20
33.54524110907089
 30
0.0
 11
190.3723014716653
 21
34.93461310982097
 31
0.0
  0
LINE
  5
40D
330
1F
100
AcDbEntity
  8
128
  6
Continuous
 62
     7
100
AcDbLine
 10
190.3723014716653
 20
34.93461310982097
 30
0.0
 11
189.6776116354076
 21
33.54524110907089
 31
0.0
  0
LINE
  5
40E
330
1F
100
AcDbEntity
  8
128
  6
Continuous
 62
     7
100
AcDbLine
 10
190.1306715584913
 20
36.86766008697764
 30
0.0
 11
191.3388211243612
 21
36.86766008697764
 31
0.0
  0
LINE
  5
40F
330
1F
100
AcDbEntity
  8
128
  6
Continuous
 62
     7
100
AcDbLine
 10
191.9428959072959
 20
32.03504647996867
 30
0.0
 11
191.3388211243612
 21
36.86766008697764
 31
0.0
  0
LINE
  5
410
330
1F
100
AcDbEntity
  8
128
  6
Continuous
 62
     7
100
AcDbLine
 10
190.7347425055437
 20
32.03504647996867
 30
0.0
 11
191.9428959072959
 21
32.03504647996867
 31
0.0
  0
LINE
  5
411
330
1F
100
AcDbEntity
  8
128
  6
Continuous
 62
     7
100
AcDbLine
 10
187.7143685908695
 20
32.03504647996867
 30
0.0
 11
190.1306715584913
 21
36.86766008697764
 31
0.0
  0
LINE
  5
412
330
1F
100
AcDbEntity
  8
128
  6
Continuous
 62
     7
100
AcDbLine
 10
187.7143685908695
 20
32.03504647996867
 30
0.0
 11
188.9225181567392
 21
32.03504647996867
 31
0.0
  0
LINE
  5
413
330
1F
100
AcDbEntity
  8
128
  6
Continuous
 62
     7
100
AcDbLine
 10
183.681559509455
 20
32.03504647996867
 30
0.0
 11
186.6370993373806
 21
32.03504647996867
 31
0.0
  0
ARC
  5
414
330
1F
100
AcDbEntity
  8
128
  6
Continuous
 62
     7
100
AcDbCircle
 10
186.6370916656156
 20
33.24320755348599
 30
0.0
 40
1.208161073517334
100
AcDbArc
 50
270.0003920000042
 51
347.0050889999991
  0
LINE
  5
415
330
1F
100
AcDbEntity
  8
128
  6
Continuous
 62
     7
100
AcDbLine
 10
188.235335142619
 20
34.79598815058505
 30
0.0
 11
187.8143086746553
 21
32.97153500823212
 31
0.0
  0
LINE
  5
416
330
1F
100
AcDbEntity
  8
128
  6
Continuous
 62
     7
100
AcDbLine
 10
185.1134215811383
 20
32.94116632613604
 30
0.0
 11
186.0665578396402
 21
32.94121235672655
 31
0.0
  0
ARC
  5
417
330
1F
100
AcDbEntity
  8
128
  6
Continuous
 62
     7
100
AcDbCircle
 10
186.0665233166973
 20
33.66609826036579
 30
0.0
 40
0.7248859036392791
100
AcDbArc
 50
270.0027959999993
 51
345.4260300000004
  0
LINE
  5
418
330
1F
100
AcDbEntity
  8
128
  6
Continuous
 62
     7
100
AcDbLine
 10
187.1764244229828
 20
34.99381228511338
 30
0.0
 11
186.7680832185902
 21
33.48369437366198
 31
0.0
  0
LINE
  5
419
330
1F
100
AcDbEntity
  8
128
  6
Continuous
 62
     7
100
AcDbLine
 10
185.8738200853645
 20
35.90110207545642
 30
0.0
 11
186.4748491775598
 21
35.90110974722158
 31
0.0
  0
ARC
  5
41A
330
1F
100
AcDbEntity
  8
128
  6
Continuous
 62
     7
100
AcDbCircle
 10
186.4748645210901
 20
35.17622384358224
 30
0.0
 40
0.7248859036392791
100
AcDbArc
 50
345.4253020000006
 51
90.00105300000973
  0
ARC
  5
41B
330
1F
100
AcDbEntity
  8
128
  6
Continuous
 62
     7
100
AcDbCircle
 10
186.5872328643165
 20
35.17631590476326
 30
0.0
 40
1.691417063982673
100
AcDbArc
 50
347.0055440000024
 51
90.00238500000235
  0
LINE
  5
41C
330
1F
100
AcDbEntity
  8
128
  6
Continuous
 62
     7
100
AcDbLine
 10
184.889739762385
 20
36.86766008697764
 30
0.0
 11
186.5871638184307
 21
36.8677291328634
 31
0.0
  0
LINE
  5
41D
330
1F
100
AcDbEntity
  8
128
  6
Continuous
 62
     7
100
AcDbLine
 10
185.8738200853645
 20
35.90110207545642
 30
0.0
 11
185.1134215811383
 21
32.94116632613604
 31
0.0
  0
LINE
  5
41E
330
1F
100
AcDbEntity
  8
128
  6
Continuous
 62
     7
100
AcDbLine
 10
184.8897205829723
 20
36.86759487697445
 30
0.0
 11
183.681559509455
 21
32.03504647996867
 31
0.0
  0
LINE
  5
41F
330
1F
100
AcDbEntity
  8
128
  6
Continuous
 62
     7
100
AcDbLine
 10
181.144449257011
 20
34.45135711935568
 30
0.0
 11
180.5403706381938
 21
32.03504647996867
 31
0.0
  0
LINE
  5
420
330
1F
100
AcDbEntity
  8
128
  6
Continuous
 62
     7
100
AcDbLine
 10
181.144449257011
 20
34.45135711935568
 30
0.0
 11
182.1472141638594
 21
32.03504647996867
 31
0.0
  0
LINE
  5
421
330
1F
100
AcDbEntity
  8
128
  6
Continuous
 62
     7
100
AcDbLine
 10
182.6546362143483
 20
34.45134944759063
 30
0.0
 11
183.2587148331656
 21
36.86765241521259
 31
0.0
  0
LINE
  5
422
330
1F
100
AcDbEntity
  8
128
  6
Continuous
 62
     7
100
AcDbLine
 10
182.6546362143483
 20
34.45134944759063
 30
0.0
 11
181.7485278758285
 21
36.86765241521259
 31
0.0
  0
LINE
  5
423
330
1F
100
AcDbEntity
  8
128
  6
Continuous
 62
     7
100
AcDbLine
 10
183.2587148331656
 20
32.03504647996867
 30
0.0
 11
182.1472141638594
 21
32.03504647996867
 31
0.0
  0
LINE
  5
424
330
1F
100
AcDbEntity
  8
128
  6
Continuous
 62
     7
100
AcDbLine
 10
184.4668643990354
 20
36.86765241521259
 30
0.0
 11
183.2587148331656
 21
32.03504647996867
 31
0.0
  0
LINE
  5
425
330
1F
100
AcDbEntity
  8
128
  6
Continuous
 62
     7
100
AcDbLine
 10
183.2587148331656
 20
36.86765241521259
 30
0.0
 11
184.4668643990354
 21
36.86765241521259
 31
0.0
  0
LINE
  5
426
330
1F
100
AcDbEntity
  8
128
  6
Continuous
 62
     7
100
AcDbLine
 10
179.3322249082065
 20
32.03504647996867
 30
0.0
 11
180.5403706381938
 21
36.86765241521259
 31
0.0
  0
LINE
  5
427
330
1F
100
AcDbEntity
  8
128
  6
Continuous
 62
     7
100
AcDbLine
 10
180.5403706381938
 20
32.03504647996867
 30
0.0
 11
179.3322249082065
 21
32.03504647996867
 31
0.0
  0
LINE
  5
428
330
1F
100
AcDbEntity
  8
128
  6
Continuous
 62
     7
100
AcDbLine
 10
180.5403706381938
 20
36.86765241521259
 30
0.0
 11
181.7485278758285
 21
36.86765241521259
 31
0.0
  0
LINE
  5
429
330
1F
100
AcDbEntity
  8
128
  6
Continuous
 62
     7
100
AcDbLine
 10
177.8069399171786
 20
32.63912893466856
 30
0.0
 11
177.8824454291629
 21
32.03504647996867
 31
0.0
  0
LINE
  5
42A
330
1F
100
AcDbEntity
  8
128
  6
Continuous
 62
     7
100
AcDbLine
 10
176.3722584718259
 20
32.63912893466856
 30
0.0
 11
176.0702249162408
 21
32.03504647996867
 31
0.0
  0
LINE
  5
42B
330
1F
100
AcDbEntity
  8
128
  6
Continuous
 62
     7
100
AcDbLine
 10
176.3722584718259
 20
32.63912893466856
 30
0.0
 11
177.8069399171786
 21
32.63912893466856
 31
0.0
  0
LINE
  5
42C
330
1F
100
AcDbEntity
  8
128
  6
Continuous
 62
     7
100
AcDbLine
 10
176.8253183949096
 20
33.54524110907089
 30
0.0
 11
177.693673977437
 21
33.54524110907089
 31
0.0
  0
LINE
  5
42D
330
1F
100
AcDbEntity
  8
128
  6
Continuous
 62
     7
100
AcDbLine
 10
177.693673977437
 20
33.54524110907089
 30
0.0
 11
177.5200043952844
 21
34.93461310982097
 31
0.0
  0
LINE
  5
42E
330
1F
100
AcDbEntity
  8
128
  6
Continuous
 62
     7
100
AcDbLine
 10
177.5200043952844
 20
34.93461310982097
 30
0.0
 11
176.8253183949096
 21
33.54524110907089
 31
0.0
  0
LINE
  5
42F
330
1F
100
AcDbEntity
  8
128
  6
Continuous
 62
     7
100
AcDbLine
 10
177.2783706462282
 20
36.86766008697764
 30
0.0
 11
178.4865240479803
 21
36.86766008697764
 31
0.0
  0
LINE
  5
430
330
1F
100
AcDbEntity
  8
128
  6
Continuous
 62
     7
100
AcDbLine
 10
179.090598830915
 20
32.03504647996867
 30
0.0
 11
178.4865240479803
 21
36.86766008697764
 31
0.0
  0
LINE
  5
431
330
1F
100
AcDbEntity
  8
128
  6
Continuous
 62
     7
100
AcDbLine
 10
177.8824454291629
 20
32.03504647996867
 30
0.0
 11
179.090598830915
 21
32.03504647996867
 31
0.0
  0
LINE
  5
432
330
1F
100
AcDbEntity
  8
128
  6
Continuous
 62
     7
100
AcDbLine
 10
174.8620676786061
 20
32.03504647996867
 30
0.0
 11
177.2783706462282
 21
36.86766008697764
 31
0.0
  0
LINE
  5
433
330
1F
100
AcDbEntity
  8
128
  6
Continuous
 62
     7
100
AcDbLine
 10
174.8620676786061
 20
32.03504647996867
 30
0.0
 11
176.0702249162408
 21
32.03504647996867
 31
0.0
  0
LINE
  5
434
330
1F
100
AcDbEntity
  8
128
  6
Continuous
 62
     7
100
AcDbLine
 10
171.2558892895512
 20
34.37828739278648
 30
0.0
 11
170.6700848151706
 21
32.03505415173372
 31
0.0
  0
LINE
  5
435
330
1F
100
AcDbEntity
  8
128
  6
Continuous
 62
     7
100
AcDbLine
 10
171.2558892895512
 20
34.37828739278648
 30
0.0
 11
171.8178192309816
 21
31.7934204026772
 31
0.0
  0
LINE
  5
436
330
1F
100
AcDbEntity
  8
128
  6
Continuous
 62
     7
100
AcDbLine
 10
173.8946312499825
 20
34.4223309961498
 30
0.0
 11
173.2676063817905
 21
32.03505415173372
 31
0.0
  0
LINE
  5
437
330
1F
100
AcDbEntity
  8
128
  6
Continuous
 62
     7
100
AcDbLine
 10
173.8946312499825
 20
34.4223309961498
 30
0.0
 11
171.8178192309816
 21
31.7934204026772
 31
0.0
  0
LINE
  5
438
330
1F
100
AcDbEntity
  8
128
  6
Continuous
 62
     7
100
AcDbLine
 10
172.3853687403383
 20
34.14931205612315
 30
0.0
 11
174.5600417947863
 21
36.86766008697764
 31
0.0
  0
LINE
  5
439
330
1F
100
AcDbEntity
  8
128
  6
Continuous
 62
     7
100
AcDbLine
 10
171.841701435697
 20
36.86766008697764
 30
0.0
 11
172.3853687403383
 21
34.14931205612315
 31
0.0
  0
LINE
  5
43A
330
1F
100
AcDbEntity
  8
128
  6
Continuous
 62
     7
100
AcDbLine
 10
174.5965785760122
 20
32.03505415173372
 30
0.0
 11
175.8047281418819
 21
36.86766008697764
 31
0.0
  0
LINE
  5
43B
330
1F
100
AcDbEntity
  8
128
  6
Continuous
 62
     7
100
AcDbLine
 10
169.4619314134183
 20
32.03505415173372
 30
0.0
 11
170.6700848151706
 21
36.86766008697764
 31
0.0
  0
LINE
  5
43C
330
1F
100
AcDbEntity
  8
128
  6
Continuous
 62
     7
100
AcDbLine
 10
169.0390752294814
 20
32.03505415173372
 30
0.0
 11
166.6234243618918
 21
32.03505415173372
 31
0.0
  0
LINE
  5
43D
330
1F
100
AcDbEntity
  8
128
  6
Continuous
 62
     7
100
AcDbLine
 10
169.0390752294814
 20
32.03505415173372
 30
0.0
 11
170.2513905637933
 21
36.88431548898113
 31
0.0
  0
ARC
  5
43E
330
1F
100
AcDbEntity
  8
128
  6
Continuous
 62
     7
100
AcDbCircle
 10
166.6234166901268
 20
33.24319988172094
 30
0.0
 40
1.208145729987161
100
AcDbArc
 50
165.9633760000044
 51
270.0003100000029
  0
LINE
  5
43F
330
1F
100
AcDbEntity
  8
128
  6
Continuous
 62
     7
100
AcDbLine
 10
166.2883676934907
 20
36.88431548898113
 30
0.0
 11
165.4513435995776
 21
33.53622678509389
 31
0.0
  0
LINE
  5
440
330
1F
100
AcDbEntity
  8
128
  6
Continuous
 62
     7
100
AcDbLine
 10
168.0616156397718
 20
33.07864052060897
 30
0.0
 11
169.0432409979234
 21
36.88431548898113
 31
0.0
  0
LINE
  5
441
330
1F
100
AcDbEntity
  8
128
  6
Continuous
 62
     7
100
AcDbLine
 10
169.0432409979234
 20
36.88431548898113
 30
0.0
 11
170.2513905637933
 21
36.88431548898113
 31
0.0
  0
LINE
  5
442
330
1F
100
AcDbEntity
  8
128
  6
Continuous
 62
     7
100
AcDbLine
 10
166.2883676934907
 20
36.88431548898113
 30
0.0
 11
167.4965172593606
 21
36.88431548898113
 31
0.0
  0
LINE
  5
443
330
1F
100
AcDbEntity
  8
128
  6
Continuous
 62
     7
100
AcDbLine
 10
163.4706587971146
 20
32.41410072114256
 30
0.0
 11
162.9420895261641
 21
30.29983130910539
 31
0.0
  0
LINE
  5
444
330
1F
100
AcDbEntity
  8
128
  6
Continuous
 62
     7
100
AcDbLine
 10
163.6971868407152
 20
33.32021289554477
 30
0.0
 11
164.1502429279163
 21
35.1324372443493
 31
0.0
  0
LINE
  5
445
330
1F
100
AcDbEntity
  8
128
  6
Continuous
 62
     7
100
AcDbLine
 10
162.2625053953624
 20
32.41410072114256
 30
0.0
 11
161.7339399602943
 21
30.29983130910539
 31
0.0
  0
LINE
  5
446
330
1F
100
AcDbEntity
  8
128
  6
Continuous
 62
     7
100
AcDbLine
 10
162.489033438963
 20
33.32021289554477
 30
0.0
 11
162.9420895261641
 21
35.1324372443493
 31
0.0
  0
LINE
  5
447
330
1F
100
AcDbEntity
  8
128
  6
Continuous
 62
     7
100
AcDbLine
 10
162.489033438963
 20
33.32021289554477
 30
0.0
 11
163.6971868407152
 21
33.32021289554477
 31
0.0
  0
LINE
  5
448
330
1F
100
AcDbEntity
  8
128
  6
Continuous
 62
     7
100
AcDbLine
 10
162.2625053953624
 20
32.41410072114256
 30
0.0
 11
163.4706587971146
 21
32.41410072114256
 31
0.0
  0
LINE
  5
449
330
1F
100
AcDbEntity
  8
128
  6
Continuous
 62
     7
100
AcDbLine
 10
165.358392493786
 20
35.1324372443493
 30
0.0
 11
164.1502429279163
 21
30.29983130910539
 31
0.0
  0
LINE
  5
44A
330
1F
100
AcDbEntity
  8
128
  6
Continuous
 62
     7
100
AcDbLine
 10
164.1502429279163
 20
35.1324372443493
 30
0.0
 11
165.358392493786
 21
35.1324372443493
 31
0.0
  0
LINE
  5
44B
330
1F
100
AcDbEntity
  8
128
  6
Continuous
 62
     7
100
AcDbLine
 10
160.5257865585421
 20
30.29983130910539
 30
0.0
 11
161.7339399602943
 21
35.1324372443493
 31
0.0
  0
LINE
  5
44C
330
1F
100
AcDbEntity
  8
128
  6
Continuous
 62
     7
100
AcDbLine
 10
161.7339399602943
 20
35.1324372443493
 30
0.0
 11
162.9420895261641
 21
35.1324372443493
 31
0.0
  0
HATCH
  5
44D
330
1F
100
AcDbEntity
  8
128
  6
Continuous
 62
     7
100
AcDbHatch
 10
0.0
 20
0.0
 30
0.0
210
0.0
220
0.0
230
1.0
  2
SOLID
 70
     1
 71
     0
 91
        1
 92
        0
 93
       12
 72
     1
 10
161.7339399602943
 20
35.1324372443493
 11
162.9420895261641
 21
35.1324372443493
 72
     1
 10
162.9420895261641
 20
35.1324372443493
 11
162.489033438963
 21
33.32021289554477
 72
     1
 10
162.489033438963
 20
33.32021289554477
 11
163.6971868407152
 21
33.32021289554477
 72
     1
 10
163.6971868407152
 20
33.32021289554477
 11
164.1502429279163
 21
35.1324372443493
 72
     1
 10
164.1502429279163
 20
35.1324372443493
 11
165.358392493786
 21
35.1324372443493
 72
     1
 10
165.358392493786
 20
35.1324372443493
 11
164.1502429279163
 21
30.29983130910539
 72
     1
 10
164.1502429279163
 20
30.29983130910539
 11
162.9420895261641
 21
30.29983130910539
 72
     1
 10
162.9420895261641
 20
30.29983130910539
 11
163.4706587971146
 21
32.41410072114256
 72
     1
 10
163.4706587971146
 20
32.41410072114256
 11
162.2625053953624
 21
32.41410072114256
 72
     1
 10
162.2625053953624
 20
32.41410072114256
 11
161.7339399602943
 21
30.29983130910539
 72
     1
 10
161.7339399602943
 20
30.29983130910539
 11
160.5257865585421
 21
30.29983130910539
 72
     1
 10
160.5257865585421
 20
30.29983130910539
 11
161.7339399602943
 21
35.1324372443493
 97
        0
 75
     0
 76
     1
 98
        0
  0
HATCH
  5
44E
330
1F
100
AcDbEntity
  8
128
  6
Continuous
 62
     7
100
AcDbHatch
 10
0.0
 20
0.0
 30
0.0
210
0.0
220
0.0
230
1.0
  2
SOLID
 70
     1
 71
     0
 91
        1
 92
        0
 93
       80
 72
     1
 10
166.2883676934907
 20
36.88431548898113
 11
167.4965172593606
 21
36.88431548898113
 72
     1
 10
167.4965172593606
 20
36.88431548898113
 11
166.7188448243187
 21
33.8339625683406
 72
     1
 10
166.7188448243187
 20
33.8339625683406
 11
166.711936089594
 21
33.80415163980278
 72
     1
 10
166.711936089594
 20
33.80415163980278
 11
166.7065458771211
 21
33.77402909533392
 72
     1
 10
166.7065458771211
 20
33.77402909533392
 11
166.7026880190788
 21
33.74367223437783
 72
     1
 10
166.7026880190788
 20
33.74367223437783
 11
166.7003724153706
 21
33.71315895767327
 72
     1
 10
166.7003724153706
 20
33.71315895767327
 11
166.6996050082196
 21
33.68256756734777
 72
     1
 10
166.6996050082196
 20
33.68256756734777
 11
166.7003877669197
 21
33.65197656598136
 72
     1
 10
166.7003877669197
 20
33.65197656598136
 11
166.7027186827824
 21
33.62146445515594
 72
     1
 10
166.7027186827824
 20
33.62146445515594
 11
166.706591774291
 21
33.59110953400717
 72
     1
 10
166.706591774291
 20
33.59110953400717
 11
166.7119971024505
 21
33.56098969829596
 72
     1
 10
166.7119971024505
 20
33.56098969829596
 11
166.7189207962927
 21
33.53118224051502
 72
     1
 10
166.7189207962927
 20
33.53118224051502
 11
166.7273450884709
 21
33.50176365154346
 72
     1
 10
166.7273450884709
 20
33.50176365154346
 11
166.7372483608547
 21
33.47280942435858
 72
     1
 10
166.7372483608547
 20
33.47280942435858
 11
166.7486052000051
 21
33.44439386030832
 72
     1
 10
166.7486052000051
 20
33.44439386030832
 11
166.7613864623897
 21
33.41658987844169
 72
     1
 10
166.7613864623897
 20
33.41658987844169
 11
166.7755593491698
 21
33.38946882838644
 72
     1
 10
166.7755593491698
 20
33.38946882838644
 11
166.791087490368
 21
33.36310030725402
 72
     1
 10
166.791087490368
 20
33.36310030725402
 11
166.8079310381992
 21
33.3375519810419
 72
     1
 10
166.8079310381992
 20
33.3375519810419
 11
166.8260467693268
 21
33.31288941099138
 72
     1
 10
166.8260467693268
 20
33.31288941099138
 11
166.8453881957808
 21
33.28917588534659
 72
     1
 10
166.8453881957808
 20
33.28917588534659
 11
166.8659056842539
 21
33.26647225694635
 72
     1
 10
166.8659056842539
 20
33.26647225694635
 11
166.8875465834687
 21
33.24483678706569
 72
     1
 10
166.8875465834687
 20
33.24483678706569
 11
166.9102553592894
 21
33.22432499590775
 72
     1
 10
166.9102553592894
 20
33.22432499590775
 11
166.9339737372319
 21
33.20498952012977
 72
     1
 10
166.9339737372319
 20
33.20498952012977
 11
166.9586408520055
 21
33.18687997776868
 72
     1
 10
166.9586408520055
 20
33.18687997776868
 11
166.9841934037036
 21
33.17004284091296
 72
     1
 10
166.9841934037036
 20
33.17004284091296
 11
167.0105658202416
 21
33.15452131644761
 72
     1
 10
167.0105658202416
 20
33.15452131644761
 11
167.0376904256258
 21
33.14035523517807
 72
     1
 10
167.0376904256258
 20
33.14035523517807
 11
167.0654976136211
 21
33.1275809496178
 72
     1
 10
167.0654976136211
 20
33.1275809496178
 11
167.0939160263723
 21
33.11623124070169
 72
     1
 10
167.0939160263723
 20
33.11623124070169
 11
167.1228727375203
 21
33.10633523366475
 72
     1
 10
167.1228727375203
 20
33.10633523366475
 11
167.1522934393428
 21
33.09791832330192
 72
     1
 10
167.1522934393428
 20
33.09791832330192
 11
167.1821026334405
 21
33.09100210880082
 72
     1
 10
167.1821026334405
 20
33.09100210880082
 11
167.2122238244787
 21
33.08560433831467
 72
     1
 10
167.2122238244787
 20
33.08560433831467
 11
167.2425797164867
 21
33.08173886341754
 72
     1
 10
167.2425797164867
 20
33.08173886341754
 11
167.2730924112122
 21
33.07941560355898
 72
     1
 10
167.2730924112122
 20
33.07941560355898
 11
167.3036836080212
 21
33.078640520609
 72
     1
 10
167.3036836080212
 20
33.07864052060897
 11
168.0616156397718
 21
33.07864052060897
 72
     1
 10
168.0616156397718
 20
33.07864052060897
 11
169.0432409979234
 21
36.88431548898113
 72
     1
 10
169.0432409979234
 20
36.88431548898113
 11
170.2513905637933
 21
36.88431548898113
 72
     1
 10
170.2513905637933
 20
36.88431548898113
 11
169.0390752294814
 21
32.03505415173372
 72
     1
 10
169.0390752294814
 20
32.03505415173372
 11
166.6234166901268
 21
32.03505415173372
 72
     1
 10
166.6234166901268
 20
32.03505415173378
 11
166.5625056126006
 21
32.0365906054758
 72
     1
 10
166.5625056126006
 20
32.0365906054758
 11
166.5017494618365
 21
32.041196058746
 72
     1
 10
166.5017494618365
 20
32.041196058746
 11
166.4413027705416
 21
32.0488587976166
 72
     1
 10
166.4413027705416
 20
32.0488587976166
 11
166.3813192843159
 21
32.05955933198218
 72
     1
 10
166.3813192843159
 20
32.05955933198218
 11
166.3219515706016
 21
32.07327044513262
 72
     1
 10
166.3219515706016
 20
32.07327044513262
 11
166.2633506306289
 21
32.0899572629785
 72
     1
 10
166.2633506306289
 20
32.0899572629785
 11
166.2056655153466
 21
32.10957734275305
 72
     1
 10
166.2056655153466
 20
32.10957734275305
 11
166.1490429463115
 21
32.13208078096493
 72
     1
 10
166.1490429463115
 20
32.13208078096493
 11
166.0936269425038
 21
32.15741034032729
 72
     1
 10
166.0936269425038
 20
32.15741034032729
 11
166.0395584540166
 21
32.18550159534028
 72
     1
 10
166.0395584540166
 20
32.18550159534028
 11
165.98697500355
 21
32.21628309615676
 72
     1
 10
165.98697500355
 20
32.21628309615676
 11
165.9360103366234
 21
32.24967655031423
 72
     1
 10
165.9360103366234
 20
32.24967655031423
 11
165.8867940813958
 21
32.28559702187108
 72
     1
 10
165.8867940813958
 20
32.28559702187108
 11
165.8394514189568
 21
32.3239531474403
 72
     1
 10
165.8394514189568
 20
32.3239531474403
 11
165.7941027649302
 21
32.36464736857145
 72
     1
 10
165.7941027649302
 20
32.36464736857145
 11
165.7508634631978
 21
32.40757617988969
 72
     1
 10
165.7508634631978
 20
32.40757617988969
 11
165.7098434925236
 21
32.45263039236067
 72
     1
 10
165.7098434925236
 20
32.45263039236067
 11
165.6711471868233
 21
32.49969541101191
 72
     1
 10
165.6711471868233
 20
32.49969541101191
 11
165.6348729697923
 21
32.54865152640401
 72
     1
 10
165.6348729697923
 20
32.54865152640401
 11
165.601113104566
 21
32.59937421911052
 72
     1
 10
165.601113104566
 20
32.59937421911052
 11
165.5699534590491
 21
32.6517344764319
 72
     1
 10
165.5699534590491
 20
32.6517344764319
 11
165.5414732875118
 21
32.70559912053823
 72
     1
 10
165.5414732875118
 20
32.70559912053823
 11
165.5157450290068
 21
32.76083114720567
 72
     1
 10
165.5157450290068
 20
32.76083114720567
 11
165.4928341231214
 21
32.81729007428552
 72
     1
 10
165.4928341231214
 20
32.81729007428552
 11
165.4727988435327
 21
32.8748322990192
 72
     1
 10
165.4727988435327
 20
32.8748322990192
 11
165.4556901497891
 21
32.93331146329061
 72
     1
 10
165.4556901497891
 20
32.93331146329061
 11
165.4415515576947
 21
32.9925788258866
 72
     1
 10
165.4415515576947
 20
32.9925788258866
 11
165.4304190286276
 21
33.05248364081886
 72
     1
 10
165.4304190286276
 20
33.05248364081886
 11
165.4223208780726
 21
33.11287354074496
 72
     1
 10
165.4223208780726
 20
33.11287354074496
 11
165.4172777036006
 21
33.1735949245133
 72
     1
 10
165.4172777036006
 20
33.1735949245133
 11
165.4153023324792
 21
33.23449334784616
 72
     1
 10
165.4153023324792
 20
33.23449334784616
 11
165.4163997890466
 21
33.29541391616737
 72
     1
 10
165.4163997890466
 20
33.29541391616737
 11
165.4205672819322
 21
33.35620167857515
 72
     1
 10
165.4205672819322
 20
33.35620167857515
 11
165.4277942111564
 21
33.41670202195836
 72
     1
 10
165.4277942111564
 20
33.41670202195836
 11
165.4380621950915
 21
33.47676106425345
 72
     1
 10
165.4380621950915
 20
33.47676106425345
 11
165.4513451172155
 21
33.53622604584216
 72
     1
 10
165.4513451172155
 20
33.53622604584216
 11
166.2883676934907
 21
36.88431548898113
 97
        0
 75
     0
 76
     1
 98
        0
  0
HATCH
  5
44F
330
1F
100
AcDbEntity
  8
128
  6
Continuous
 62
     7
100
AcDbHatch
 10
0.0
 20
0.0
 30
0.0
210
0.0
220
0.0
230
1.0
  2
SOLID
 70
     1
 71
     0
 91
        1
 92
        0
 93
       12
 72
     1
 10
171.841701435697
 20
36.86766008697764
 11
172.3853687403383
 21
34.14931205612315
 72
     1
 10
172.3853687403383
 20
34.14931205612315
 11
174.5600417947863
 21
36.86766008697764
 72
     1
 10
174.5600417947863
 20
36.86766008697764
 11
175.8047281418819
 21
36.86766008697764
 72
     1
 10
175.8047281418819
 20
36.86766008697764
 11
174.596576658074
 21
32.03504647996867
 72
     1
 10
174.596576658074
 20
32.03504647996867
 11
173.2676043667802
 21
32.03504647996867
 72
     1
 10
173.2676043667802
 20
32.03504647996867
 11
173.8946312499825
 21
34.4223309961498
 72
     1
 10
173.8946312499825
 20
34.4223309961498
 11
171.8178192309816
 21
31.7934204026772
 72
     1
 10
171.8178192309816
 20
31.7934204026772
 11
171.2558892895512
 21
34.37828739278648
 72
     1
 10
171.2558892895512
 20
34.37828739278648
 11
170.6700828972419
 21
32.03504647996867
 72
     1
 10
170.6700828972419
 20
32.03504647996867
 11
169.461929495474
 21
32.03504647996867
 72
     1
 10
169.461929495474
 20
32.03504647996867
 11
170.6700848151706
 21
36.86766008697764
 72
     1
 10
170.6700848151706
 20
36.86766008697764
 11
171.841701435697
 21
36.86766008697764
 97
        0
 75
     0
 76
     1
 98
        0
  0
HATCH
  5
450
330
1F
100
AcDbEntity
  8
128
  6
Continuous
 62
     7
100
AcDbHatch
 10
0.0
 20
0.0
 30
0.0
210
0.0
220
0.0
230
1.0
  2
SOLID
 70
     1
 71
     0
 91
        2
 92
        0
 93
        8
 72
     1
 10
177.2783706462282
 20
36.86766008697764
 11
178.4865240479803
 21
36.86766008697764
 72
     1
 10
178.4865240479803
 20
36.86766008697764
 11
179.090598830915
 21
32.03504647996867
 72
     1
 10
179.090598830915
 20
32.03504647996867
 11
177.8824454291629
 21
32.03504647996867
 72
     1
 10
177.8824454291629
 20
32.03504647996867
 11
177.8069399171786
 21
32.63912893466856
 72
     1
 10
177.8069399171786
 20
32.63912893466856
 11
176.3722584718259
 21
32.63912893466856
 72
     1
 10
176.3722584718259
 20
32.63912893466856
 11
176.0702249162408
 21
32.03504647996867
 72
     1
 10
176.0702249162408
 20
32.03504647996867
 11
174.8620676786061
 21
32.03504647996867
 72
     1
 10
174.8620676786061
 20
32.03504647996867
 11
177.2783706462282
 21
36.86766008697764
 97
        0
 92
        0
 93
        3
 72
     1
 10
176.8253183949096
 20
33.54524110907089
 11
177.5200043952844
 21
34.93461310982097
 72
     1
 10
177.5200043952844
 20
34.93461310982097
 11
177.693673977437
 21
33.54524110907089
 72
     1
 10
177.693673977437
 20
33.54524110907089
 11
176.8253183949096
 21
33.54524110907089
 97
        0
 75
     0
 76
     1
 98
        0
  0
HATCH
  5
451
330
1F
100
AcDbEntity
  8
128
  6
Continuous
 62
     7
100
AcDbHatch
 10
0.0
 20
0.0
 30
0.0
210
0.0
220
0.0
230
1.0
  2
SOLID
 70
     1
 71
     0
 91
        1
 92
        0
 93
       10
 72
     1
 10
180.5403706381938
 20
36.86765241521259
 11
181.7485278758285
 21
36.86765241521259
 72
     1
 10
181.7485278758285
 20
36.86765241521259
 11
182.6546362143483
 21
34.45134944759063
 72
     1
 10
182.6546362143483
 20
34.45134944759063
 11
183.2587148331656
 21
36.86765241521259
 72
     1
 10
183.2587148331656
 20
36.86765241521259
 11
184.4668643990354
 21
36.86765241521259
 72
     1
 10
184.4668643990354
 20
36.86765241521259
 11
183.2587148331656
 21
32.03504647996867
 72
     1
 10
183.2587148331656
 20
32.03504647996867
 11
182.1472141638594
 21
32.03504647996867
 72
     1
 10
182.1472141638594
 20
32.03504647996867
 11
181.144449257011
 21
34.45135711935568
 72
     1
 10
181.144449257011
 20
34.45135711935568
 11
180.5403706381938
 21
32.03504647996867
 72
     1
 10
180.5403706381938
 20
32.03504647996867
 11
179.3322249082065
 21
32.03504647996867
 72
     1
 10
179.3322249082065
 20
32.03504647996867
 11
180.5403706381938
 21
36.86765241521259
 97
        0
 75
     0
 76
     1
 98
        0
  0
HATCH
  5
452
330
1F
100
AcDbEntity
  8
128
  6
Continuous
 62
     7
100
AcDbHatch
 10
0.0
 20
0.0
 30
0.0
210
0.0
220
0.0
230
1.0
  2
SOLID
 70
     1
 71
     0
 91
        2
 92
        0
 93
       76
 72
     1
 10
184.8897368857674
 20
36.86766008686065
 11
186.5835624837846
 21
36.86772898637246
 72
     1
 10
186.5835624837846
 20
36.86772898637239
 11
186.6681238471609
 21
36.86579758067047
 72
     1
 10
186.6681238471609
 20
36.86579758067047
 11
186.7524829229879
 21
36.85964121570017
 72
     1
 10
186.7524829229879
 20
36.85964121570017
 11
186.8364287509076
 21
36.84927528694737
 72
     1
 10
186.8364287509076
 20
36.84927528694737
 11
186.9197514039887
 21
36.83472571693454
 72
     1
 10
186.9197514039887
 20
36.83472571693454
 11
187.0022425137
 21
36.81602889039529
 72
     1
 10
187.0022425137
 20
36.81602889039529
 11
187.0836957909863
 21
36.79323156328542
 72
     1
 10
187.0836957909863
 20
36.79323156328542
 11
187.1639075421446
 21
36.76639074585835
 72
     1
 10
187.1639075421446
 20
36.76639074585835
 11
187.2426771782095
 21
36.73557356009707
 72
     1
 10
187.2426771782095
 20
36.73557356009707
 11
187.3198077165745
 21
36.7008570718594
 72
     1
 10
187.3198077165745
 20
36.7008570718594
 11
187.3951062735952
 21
36.66232809815606
 72
     1
 10
187.3951062735952
 20
36.66232809815606
 11
187.4683845469415
 21
36.62008299004361
 72
     1
 10
187.4683845469415
 20
36.62008299004361
 11
187.539459286493
 21
36.57422739167531
 72
     1
 10
187.539459286493
 20
36.57422739167531
 11
187.6081527526012
 21
36.52487597611217
 72
     1
 10
187.6081527526012
 20
36.52487597611217
 11
187.6742931605698
 21
36.47215215855518
 72
     1
 10
187.6742931605698
 20
36.47215215855518
 11
187.7377151102447
 21
36.41618778771561
 72
     1
 10
187.7377151102447
 20
36.41618778771561
 11
187.7982599996369
 21
36.35712281609523
 72
     1
 10
187.7982599996369
 20
36.35712281609523
 11
187.8557764215456
 21
36.29510495000116
 72
     1
 10
187.8557764215456
 20
36.29510495000116
 11
187.9101205421882
 21
36.23028928017034
 72
     1
 10
187.9101205421882
 20
36.23028928017034
 11
187.9611564608921
 21
36.16283789392748
 72
     1
 10
187.9611564608921
 20
36.16283789392748
 11
188.0087565499471
 21
36.09291946984632
 72
     1
 10
188.0087565499471
 20
36.09291946984632
 11
188.0528017737695
 21
36.02070885592792
 72
     1
 10
188.0528017737695
 20
36.02070885592792
 11
188.0931819865795
 21
35.94638663235075
 72
     1
 10
188.0931819865795
 20
35.94638663235075
 11
188.1297962078475
 21
35.87013865988609
 72
     1
 10
188.1297962078475
 20
35.87013865988609
 11
188.1625528748205
 21
35.79215561510802
 72
     1
 10
188.1625528748205
 20
35.79215561510802
 11
188.1913700714967
 21
35.71263251356039
 72
     1
 10
188.1913700714967
 20
35.71263251356039
 11
188.216175733477
 21
35.63176822207301
 72
     1
 10
188.216175733477
 20
35.63176822207301
 11
188.2369078281787
 21
35.54976496144688
 72
     1
 10
188.2369078281787
 20
35.54976496144688
 11
188.2535145099637
 21
35.466827800752
 72
     1
 10
188.2535145099637
 20
35.466827800752
 11
188.2659542497908
 21
35.38316414450228
 72
     1
 10
188.2659542497908
 20
35.38316414450228
 11
188.2741959390691
 21
35.29898321399023
 72
     1
 10
188.2741959390691
 20
35.29898321399023
 11
188.278218967453
 21
35.21449552407827
 72
     1
 10
188.278218967453
 20
35.21449552407827
 11
188.2780132743828
 21
35.12991235675524
 72
     1
 10
188.2780132743828
 20
35.12991235675524
 11
188.2735793742441
 21
35.0454452327744
 72
     1
 10
188.2735793742441
 20
35.0454452327744
 11
188.264928355081
 21
34.96130538269445
 72
     1
 10
188.264928355081
 20
34.96130538269445
 11
188.2520818508681
 21
34.87770321864625
 72
     1
 10
188.2520818508681
 20
34.87770321864625
 11
188.2350719874092
 21
34.79484780814609
 72
     1
 10
188.2350719874092
 20
34.79484780814612
 11
187.8149188184263
 21
32.97417897198538
 72
     1
 10
187.8149188184263
 20
32.97417897198536
 11
187.8040372527379
 21
32.93033189726082
 72
     1
 10
187.8040372527379
 20
32.93033189726082
 11
187.7915239938895
 21
32.88692230400395
 72
     1
 10
187.7915239938895
 20
32.88692230400395
 11
187.7773965386688
 21
32.84401089010606
 72
     1
 10
187.7773965386688
 20
32.84401089010606
 11
187.761674640929
 21
32.80165765687423
 72
     1
 10
187.761674640929
 20
32.80165765687423
 11
187.7443802839684
 21
32.75992182513394
 72
     1
 10
187.7443802839684
 20
32.75992182513394
 11
187.7255376497922
 21
32.71886175242296
 72
     1
 10
187.7255376497922
 20
32.71886175242296
 11
187.7051730852989
 21
32.67853485139235
 72
     1
 10
187.7051730852989
 20
32.67853485139235
 11
187.6833150654416
 21
32.63899750952862
 72
     1
 10
187.6833150654416
 20
32.63899750952862
 11
187.6599941534118
 21
32.60030501030943
 72
     1
 10
187.6599941534118
 20
32.60030501030943
 11
187.6352429579043
 21
32.56251145590286
 72
     1
 10
187.6352429579043
 20
32.56251145590286
 11
187.6090960875221
 21
32.52566969151858
 72
     1
 10
187.6090960875221
 20
32.52566969151858
 11
187.5815901023841
 21
32.48983123151648
 72
     1
 10
187.5815901023841
 20
32.48983123151648
 11
187.552763463005
 21
32.4550461873762
 72
     1
 10
187.552763463005
 20
32.4550461873762
 11
187.5226564765173
 21
32.4213631976283
 72
     1
 10
187.5226564765173
 20
32.4213631976283
 11
187.4913112403112
 21
32.38882935984491
 72
     1
 10
187.4913112403112
 20
32.38882935984491
 11
187.458771583172
 21
32.35749016478515
 72
     1
 10
187.458771583172
 20
32.35749016478515
 11
187.4250830039957
 21
32.32738943278712
 72
     1
 10
187.4250830039957
 20
32.32738943278712
 11
187.3902926081701
 21
32.29856925249581
 72
     1
 10
187.3902926081701
 20
32.29856925249581
 11
187.3544490417085
 21
32.27106992201214
 72
     1
 10
187.3544490417085
 20
32.27106992201214
 11
187.317602423231
 21
32.24492989254578
 72
     1
 10
187.317602423231
 20
32.24492989254578
 11
187.2798042738846
 21
32.22018571465038
 72
     1
 10
187.2798042738846
 20
32.22018571465038
 11
187.2411074453039
 21
32.19687198711637
 72
     1
 10
187.2411074453039
 20
32.19687198711637
 11
187.2015660457106
 21
32.17502130859288
 72
     1
 10
187.2015660457106
 20
32.17502130859288
 11
187.1612353642562
 21
32.15466423200636
 72
     1
 10
187.1612353642562
 20
32.15466423200636
 11
187.120171793713
 21
32.13582922183963
 72
     1
 10
187.120171793713
 20
32.13582922183963
 11
187.0784327516232
 21
32.11854261433114
 72
     1
 10
187.0784327516232
 20
32.11854261433114
 11
187.0360766000133
 21
32.1028285806501
 72
     1
 10
187.0360766000133
 20
32.1028285806501
 11
186.9931625637894
 21
32.08870909309887
 72
     1
 10
186.9931625637894
 20
32.08870909309887
 11
186.9497506479254
 21
32.07620389438996
 72
     1
 10
186.9497506479254
 20
32.07620389438996
 11
186.9059015535602
 21
32.06533047004062
 72
     1
 10
186.9059015535602
 20
32.06533047004062
 11
186.8616765931218
 21
32.05610402392355
 72
     1
 10
186.8616765931218
 20
32.05610402392355
 11
186.8171376045966
 21
32.04853745700789
 72
     1
 10
186.8171376045966
 20
32.04853745700789
 11
186.7723468650641
 21
32.04264134932035
 72
     1
 10
186.7723468650641
 20
32.04264134932035
 11
186.7273670036169
 21
32.03842394515157
 72
     1
 10
186.7273670036169
 20
32.03842394515157
 11
186.6822609137893
 21
32.03589114152847
 72
     1
 10
186.6822609137893
 20
32.03589114152847
 11
186.6370916656156
 21
32.03504647996866
 72
     1
 10
186.6370916656156
 20
32.03504647996867
 11
183.681559509455
 21
32.03504647996867
 72
     1
 10
183.681559509455
 20
32.03504647996867
 11
184.8897368857674
 21
36.86766008686065
 97
        0
 92
        0
 93
       76
 72
     1
 10
185.1134215811383
 20
32.94116632613604
 11
185.8738200853645
 21
35.90110207545642
 72
     1
 10
185.8738200853645
 20
35.90110207545642
 11
186.4748552683694
 21
35.90110974729934
 72
     1
 10
186.4748552683694
 20
35.90110974716247
 11
186.5119801737362
 21
35.90015892466588
 72
     1
 10
186.5119801737362
 20
35.90015892466588
 11
186.5490076624323
 21
35.89730800502723
 72
     1
 10
186.5490076624323
 20
35.89730800502723
 11
186.5858405491887
 21
35.8925644709952
 72
     1
 10
186.5858405491887
 20
35.8925644709952
 11
186.6223821595042
 21
35.8859407728235
 72
     1
 10
186.6223821595042
 20
35.8859407728235
 11
186.6585365833848
 21
35.87745429559308
 72
     1
 10
186.6585365833848
 20
35.87745429559308
 11
186.6942089270765
 21
35.86712731358178
 72
     1
 10
186.6942089270765
 20
35.86712731358178
 11
186.729305562131
 21
35.85498693180149
 72
     1
 10
186.729305562131
 20
35.85498693180149
 11
186.7637343711504
 21
35.84106501485631
 72
     1
 10
186.7637343711504
 20
35.84106501485631
 11
186.7974049895655
 21
35.82539810330805
 72
     1
 10
186.7974049895655
 20
35.82539810330805
 11
186.8302290428144
 21
35.80802731776911
 72
     1
 10
186.8302290428144
 20
35.80802731776911
 11
186.8621203782964
 21
35.788998250974
 72
     1
 10
186.8621203782964
 20
35.788998250974
 11
186.8929952914959
 21
35.76836084811308
 72
     1
 10
186.8929952914959
 20
35.76836084811308
 11
186.9227727456792
 21
35.74616927574247
 72
     1
 10
186.9227727456792
 20
35.74616927574247
 11
186.9513745845903
 21
35.72248177961423
 72
     1
 10
186.9513745845903
 20
35.72248177961423
 11
186.9787257375856
 21
35.69736053179995
 72
     1
 10
186.9787257375856
 20
35.69736053179995
 11
187.0047544166707
 21
35.67087146750907
 72
     1
 10
187.0047544166707
 20
35.67087146750907
 11
187.0293923049204
 21
35.64308411203005
 72
     1
 10
187.0293923049204
 20
35.64308411203005
 11
187.0525747357889
 21
35.61407139824888
 72
     1
 10
187.0525747357889
 20
35.61407139824888
 11
187.0742408628388
 21
35.58390947522366
 72
     1
 10
187.0742408628388
 20
35.58390947522366
 11
187.0943338194432
 21
35.55267750831774
 72
     1
 10
187.0943338194432
 20
35.55267750831774
 11
187.1128008680427
 21
35.52045747141607
 72
     1
 10
187.1128008680427
 20
35.52045747141607
 11
187.1295935385642
 21
35.48733393177012
 72
     1
 10
187.1295935385642
 20
35.48733393177012
 11
187.1446677556395
 21
35.45339382803592
 72
     1
 10
187.1446677556395
 20
35.45339382803592
 11
187.1579839542889
 21
35.41872624208808
 72
     1
 10
187.1579839542889
 20
35.41872624208808
 11
187.1695071837665
 21
35.3834221652084
 72
     1
 10
187.1695071837665
 20
35.3834221652084
 11
187.179207199295
 21
35.34757425926304
 72
     1
 10
187.179207199295
 20
35.34757425926304
 11
187.1870585414482
 21
35.31127661349483
 72
     1
 10
187.1870585414482
 20
35.31127661349483
 11
187.1930406029738
 21
35.27462449756921
 72
     1
 10
187.1930406029738
 20
35.27462449756921
 11
187.1971376828811
 21
35.237714111522
 72
     1
 10
187.1971376828811
 20
35.237714111522
 11
187.1993390276509
 21
35.20064233326515
 72
     1
 10
187.1993390276509
 20
35.20064233326515
 11
187.1996388594599
 21
35.16350646431332
 72
     1
 10
187.1996388594599
 20
35.16350646431332
 11
187.198036391346
 21
35.1264039743987
 72
     1
 10
187.198036391346
 20
35.1264039743987
 11
187.1945358292734
 21
35.0894322456442
 72
     1
 10
187.1945358292734
 20
35.0894322456442
 11
187.1891463610935
 21
35.05268831696667
 72
     1
 10
187.1891463610935
 20
35.05268831696667
 11
187.1818821324299
 21
35.01626862938092
 72
     1
 10
187.1818821324299
 20
35.01626862938092
 11
187.1727622095504
 21
34.98026877287299
 72
     1
 10
187.1727622095505
 20
34.98026877287298
 11
186.7681216978698
 21
33.48383667683554
 72
     1
 10
186.7681216978698
 20
33.48383667683553
 11
186.7609884045505
 21
33.45830553901109
 72
     1
 10
186.7609884045505
 20
33.45830553901109
 11
186.752926368991
 21
33.43305229258949
 72
     1
 10
186.752926368991
 20
33.43305229258949
 11
186.7439463729472
 21
33.40811070997641
 72
     1
 10
186.7439463729472
 20
33.40811070997641
 11
186.7340604258085
 21
33.38351414677417
 72
     1
 10
186.7340604258085
 20
33.38351414677417
 11
186.7232817485371
 21
33.35929549717373
 72
     1
 10
186.7232817485371
 20
33.35929549717373
 11
186.7116247559869
 21
33.3354871499636
 72
     1
 10
186.7116247559869
 20
33.3354871499636
 11
186.6991050376263
 21
33.31212094521484
 72
     1
 10
186.6991050376263
 20
33.31212094521484
 11
186.6857393366888
 21
33.28922813169965
 72
     1
 10
186.6857393366888
 20
33.28922813169965
 11
186.6715455277822
 21
33.26683932510092
 72
     1
 10
186.6715455277822
 20
33.26683932510092
 11
186.6565425929837
 21
33.24498446706835
 72
     1
 10
186.6565425929837
 20
33.24498446706835
 11
186.6407505964542
 21
33.22369278517603
 72
     1
 10
186.6407505964542
 20
33.22369278517603
 11
186.6241906576056
 21
33.20299275383496
 72
     1
 10
186.6241906576056
 20
33.20299275383496
 11
186.6068849228567
 21
33.18291205621282
 72
     1
 10
186.6068849228567
 20
33.18291205621282
 11
186.5888565360158
 21
33.16347754721192
 72
     1
 10
186.5888565360158
 20
33.16347754721192
 11
186.5701296073292
 21
33.14471521755482
 72
     1
 10
186.5701296073292
 20
33.14471521755482
 11
186.5507291812378
 21
33.12665015902566
 72
     1
 10
186.5507291812378
 20
33.12665015902566
 11
186.5306812028833
 21
33.10930653091367
 72
     1
 10
186.5306812028833
 20
33.10930653091367
 11
186.5100124834108
 21
33.0927075277038
 72
     1
 10
186.5100124834108
 20
33.0927075277038
 11
186.4887506641133
 21
33.07687534805758
 72
     1
 10
186.4887506641133
 20
33.07687534805758
 11
186.4669241794649
 21
33.06183116512575
 72
     1
 10
186.4669241794649
 20
33.06183116512575
 11
186.4445622190947
 21
33.04759509823236
 72
     1
 10
186.4445622190947
 20
33.04759509823236
 11
186.4216946887496
 21
33.03418618596826
 72
     1
 10
186.4216946887496
 20
33.03418618596826
 11
186.3983521703
 21
33.0216223607298
 72
     1
 10
186.3983521703
 20
33.0216223607298
 11
186.3745658808413
 21
33.009920424737
 72
     1
 10
186.3745658808413
 20
33.009920424737
 11
186.3503676309457
 21
32.9990960275631
 72
     1
 10
186.3503676309457
 20
32.9990960275631
 11
186.3257897821201
 21
32.98916364520557
 72
     1
 10
186.3257897821201
 20
32.98916364520557
 11
186.3008652035278
 21
32.98013656072676
 72
     1
 10
186.3008652035278
 20
32.98013656072676
 11
186.2756272280308
 21
32.9720268464897
 72
     1
 10
186.2756272280308
 20
32.9720268464897
 11
186.2501096076123
 21
32.96484534801319
 72
     1
 10
186.2501096076123
 20
32.96484534801319
 11
186.2243464682382
 21
32.95860166946755
 72
     1
 10
186.2243464682382
 20
32.95860166946755
 11
186.198372264219
 21
32.95330416083048
 72
     1
 10
186.198372264219
 20
32.95330416083048
 11
186.1722217321323
 21
32.94895990672023
 72
     1
 10
186.1722217321323
 20
32.94895990672023
 11
186.1459298443679
 21
32.945574716921
 72
     1
 10
186.1459298443679
 20
32.945574716921
 11
186.1195317623575
 21
32.94315311861323
 72
     1
 10
186.1195317623575
 20
32.94315311861323
 11
186.0930627895516
 21
32.94169835031916
 72
     1
 10
186.0930627895516
 20
32.94169835031916
 11
186.0665583242063
 21
32.94121235757183
 72
     1
 10
186.0665583242063
 20
32.94121235757181
 11
185.1134215811383
 21
32.94116632613604
 97
        0
 75
     0
 76
     1
 98
        0
  0
HATCH
  5
453
330
1F
100
AcDbEntity
  8
128
  6
Continuous
 62
     7
100
AcDbHatch
 10
0.0
 20
0.0
 30
0.0
210
0.0
220
0.0
230
1.0
  2
SOLID
 70
     1
 71
     0
 91
        2
 92
        0
 93
        8
 72
     1
 10
187.7143685908695
 20
32.03504647996867
 11
190.1306715584913
 21
36.86766008697764
 72
     1
 10
190.1306715584913
 20
36.86766008697764
 11
191.3388211243612
 21
36.86766008697764
 72
     1
 10
191.3388211243612
 20
36.86766008697764
 11
191.9428959072959
 21
32.03504647996867
 72
     1
 10
191.9428959072959
 20
32.03504647996867
 11
190.7347425055437
 21
32.03504647996867
 72
     1
 10
190.7347425055437
 20
32.03504647996867
 11
190.6592369935595
 21
32.63912893466856
 72
     1
 10
190.6592369935595
 20
32.63912893466856
 11
189.2245555482065
 21
32.63912893466856
 72
     1
 10
189.2245555482065
 20
32.63912893466856
 11
188.9225181567392
 21
32.03504647996867
 72
     1
 10
188.9225181567392
 20
32.03504647996867
 11
187.7143685908695
 21
32.03504647996867
 97
        0
 92
        0
 93
        3
 72
     1
 10
190.3723014716653
 20
34.93461310982097
 11
190.5459672179353
 21
33.54524110907089
 72
     1
 10
190.5459672179353
 20
33.54524110907089
 11
189.6776116354076
 21
33.54524110907089
 72
     1
 10
189.6776116354076
 20
33.54524110907089
 11
190.3723014716653
 21
34.93461310982097
 97
        0
 75
     0
 76
     1
 98
        0
  0
HATCH
  5
454
330
1F
100
AcDbEntity
  8
128
  6
Continuous
 62
     7
100
AcDbHatch
 10
0.0
 20
0.0
 30
0.0
210
0.0
220
0.0
230
1.0
  2
SOLID
 70
     1
 71
     0
 91
        1
 92
        0
 93
       10
 72
     1
 10
193.3322640721636
 20
36.86766008697764
 11
194.5404136380333
 21
36.86766008697764
 72
     1
 10
194.5404136380333
 20
36.86766008697764
 11
195.7485632039029
 21
36.86766008697764
 72
     1
 10
195.7485632039029
 20
36.86766008697764
 11
195.5786681301731
 21
35.96154407669285
 72
     1
 10
195.5786681301731
 20
35.96154407669285
 11
194.3705108925384
 21
35.96154407669285
 72
     1
 10
194.3705108925384
 20
35.96154407669285
 11
193.6343014636309
 21
32.03504647996867
 72
     1
 10
193.6343014636309
 20
32.03504647996867
 11
192.4261480618788
 21
32.03504647996867
 72
     1
 10
192.4261480618788
 20
32.03504647996867
 11
193.162368279204
 21
35.96154407669285
 72
     1
 10
193.162368279204
 20
35.96154407669285
 11
191.954211760799
 21
35.96154407669285
 72
     1
 10
191.954211760799
 20
35.96154407669285
 11
192.1241106704114
 21
36.86766008697764
 72
     1
 10
192.1241106704114
 20
36.86766008697764
 11
193.3322640721636
 21
36.86766008697764
 97
        0
 75
     0
 76
     1
 98
        0
  0
HATCH
  5
455
330
1F
100
AcDbEntity
  8
128
  6
Continuous
 62
     7
100
AcDbHatch
 10
0.0
 20
0.0
 30
0.0
210
0.0
220
0.0
230
1.0
  2
SOLID
 70
     1
 71
     0
 91
        2
 92
        0
 93
        8
 72
     1
 10
194.1779649323898
 20
32.03504647996867
 11
196.5942679000118
 21
36.86766008697764
 72
     1
 10
196.5942679000118
 20
36.86766008697764
 11
197.802421301764
 21
36.86766008697764
 72
     1
 10
197.802421301764
 20
36.86766008697764
 11
198.4064960846989
 21
32.03504647996867
 72
     1
 10
198.4064960846989
 20
32.03504647996867
 11
197.1983426829468
 21
32.03504647996867
 72
     1
 10
197.1983426829468
 20
32.03504647996867
 11
197.1228371709623
 21
32.63912893466856
 72
     1
 10
197.1228371709623
 20
32.63912893466856
 11
195.6881557256095
 21
32.63912893466856
 72
     1
 10
195.6881557256095
 20
32.63912893466856
 11
195.3861183341422
 21
32.03504647996867
 72
     1
 10
195.3861183341422
 20
32.03504647996867
 11
194.1779649323898
 21
32.03504647996867
 97
        0
 92
        0
 93
        3
 72
     1
 10
196.8358978131858
 20
34.93461310982097
 11
197.0095673953383
 21
33.54524110907089
 72
     1
 10
197.0095673953383
 20
33.54524110907089
 11
196.1412156486932
 21
33.54524110907089
 72
     1
 10
196.1412156486932
 20
33.54524110907089
 11
196.8358978131858
 21
34.93461310982097
 97
        0
 75
     0
 76
     1
 98
        0
  0
TEXT
  5
456
330
1F
100
AcDbEntity
  8
128
  6
Continuous
 62
     7
100
AcDbText
 10
200.5366867364595
 20
33.77806718140191
 30
0.0
 40
4.0
  1
UNIT
 41
0.5
100
AcDbText
  0
TEXT
  5
457
330
1F
100
AcDbEntity
  8
2
  6
Continuous
 62
     5
100
AcDbText
 10
216.5224368674113
 20
25.92278993913764
 30
0.0
 40
5.0
  1
XCM-101  外形寸法図
 41
1.2
100
AcDbText
  0
TEXT
  5
458
330
1F
100
AcDbEntity
  8
2
  6
Continuous
 62
     5
100
AcDbText
 10
230.097342714952
 20
10.99623306096379
 30
0.0
 40
5.0
  1
G-XCM-101
 41
0.6
100
AcDbText
  0
TEXT
  5
459
330
1F
100
AcDbEntity
  8
2
  6
Continuous
 62
     5
100
AcDbText
 10
275.6215386311838
 20
10.67412420225686
 30
0.0
 40
5.0
  1
A
 41
0.6
100
AcDbText
  0
INSERT
  5
461
330
1F
100
AcDbEntity
  8
0
100
AcDbBlockReference
  2
*G67
 10
0.0
 20
0.0
 30
0.0
  0
CIRCLE
  5
462
330
1F
100
AcDbEntity
  8
3
  6
Continuous
 62
    14
100
AcDbCircle
 10
96.2065973089363
 20
134.8308565338173
 30
0.0
 40
0.4
  0
CIRCLE
  5
463
330
1F
100
AcDbEntity
  8
3
  6
Continuous
 62
    14
100
AcDbCircle
 10
96.2065973089363
 20
137.370856533817
 30
0.0
 40
0.4
  0
VIEWPORT
  5
2A
330
1B
100
AcDbEntity
 67
     1
  8
0
100
AcDbViewport
 10
148.5
 20
105.0
 30
0.0
 40
297.0
 41
210.0
 68
     1
 69
     1
 12
148.5
 22
105.0
 13
0.0
 23
0.0
 14
0.5
 24
0.5
 15
0.5
 25
0.5
 16
0.0
 26
0.0
 36
1.0
 17
0.0
 27
0.0
 37
0.0
 42
50.0
 43
0.0
 44
0.0
 45
9.0
 50
0.0
 51
0.0
 72
   100
 90
    32800
  1

281
     0
 71
     1
 74
     0
110
0.0
120
0.0
130
0.0
111
1.0
121
0.0
131
0.0
112
0.0
122
1.0
132
0.0
 79
     0
146
0.0
  0
ENDSEC
  0
SECTION
  2
OBJECTS
  0
DICTIONARY
  5
C
330
0
100
AcDbDictionary
281
     1
  3
ACAD_GROUP
350
D
  3
ACAD_LAYOUT
350
1A
  3
ACAD_MLINESTYLE
350
17
  3
ACAD_PLOTSETTINGS
350
19
  3
ACAD_PLOTSTYLENAME
350
E
  3
AcDbVariableDictionary
350
464
  0
DICTIONARY
  5
D
102
{ACAD_REACTORS
330
C
102
}
330
C
100
AcDbDictionary
281
     1
  0
DICTIONARY
  5
1A
102
{ACAD_REACTORS
330
C
102
}
330
C
100
AcDbDictionary
281
     1
  3
Layout1
350
1E
  3
Layout2
350
26
  3
Model
350
22
  0
DICTIONARY
  5
17
102
{ACAD_REACTORS
330
C
102
}
330
C
100
AcDbDictionary
281
     1
  3
Standard
350
18
  0
DICTIONARY
  5
19
102
{ACAD_REACTORS
330
C
102
}
330
C
100
AcDbDictionary
281
     1
  0
ACDBDICTIONARYWDFLT
  5
E
102
{ACAD_REACTORS
330
C
102
}
330
C
100
AcDbDictionary
281
     1
  3
Normal
350
F
100
AcDbDictionaryWithDefault
340
F
  0
DICTIONARY
  5
464
102
{ACAD_REACTORS
330
C
102
}
330
C
100
AcDbDictionary
281
     1
  3
DIMASSOC
350
465
  0
LAYOUT
  5
1E
102
{ACAD_REACTORS
330
1A
102
}
330
1A
100
AcDbPlotSettings
  1

  2

  4

  6

 40
0.0
 41
0.0
 42
0.0
 43
0.0
 44
0.0
 45
0.0
 46
0.0
 47
0.0
 48
0.0
 49
0.0
140
0.0
141
0.0
142
1.0
143
1.0
 70
   688
 72
     0
 73
     0
 74
     5
  7

 75
    16
147
1.0
148
0.0
149
0.0
100
AcDbLayout
  1
Layout1
 70
     1
 71
     1
 10
0.0
 20
0.0
 11
297.0
 21
210.0
 12
0.0
 22
0.0
 32
0.0
 14
0.0
 24
0.0
 34
0.0
 15
297.0
 25
210.0
 35
0.0
146
0.0
 13
0.0
 23
0.0
 33
0.0
 16
1.0
 26
0.0
 36
0.0
 17
0.0
 27
1.0
 37
0.0
 76
     0
330
1B
331
2A
  0
LAYOUT
  5
26
102
{ACAD_REACTORS
330
1A
102
}
330
1A
100
AcDbPlotSettings
  1

  2

  4

  6

 40
0.0
 41
0.0
 42
0.0
 43
0.0
 44
0.0
 45
0.0
 46
0.0
 47
0.0
 48
0.0
 49
0.0
140
0.0
141
0.0
142
1.0
143
1.0
 70
   688
 72
     0
 73
     0
 74
     5
  7

 75
    16
147
1.0
148
0.0
149
0.0
100
AcDbLayout
  1
Layout2
 70
     1
 71
     2
 10
0.0
 20
0.0
 11
0.0
 21
0.0
 12
0.0
 22
0.0
 32
0.0
 14
0.0
 24
0.0
 34
0.0
 15
0.0
 25
0.0
 35
0.0
146
0.0
 13
0.0
 23
0.0
 33
0.0
 16
1.0
 26
0.0
 36
0.0
 17
0.0
 27
1.0
 37
0.0
 76
     0
330
23
  0
LAYOUT
  5
22
102
{ACAD_REACTORS
330
1A
102
}
330
1A
100
AcDbPlotSettings
  1

  2

  4

  6

 40
0.0
 41
0.0
 42
0.0
 43
0.0
 44
0.0
 45
0.0
 46
0.0
 47
0.0
 48
0.0
 49
0.0
140
0.0
141
0.0
142
1.0
143
1.0
 70
  1712
 72
     0
 73
     0
 74
     0
  7

 75
     0
147
1.0
148
0.0
149
0.0
100
AcDbLayout
  1
Model
 70
     1
 71
     0
 10
0.0
 20
0.0
 11
297.0
 21
210.0
 12
0.0
 22
0.0
 32
0.0
 14
0.0
 24
0.0
 34
0.0
 15
297.0
 25
210.0
 35
0.0
146
0.0
 13
0.0
 23
0.0
 33
0.0
 16
1.0
 26
0.0
 36
0.0
 17
0.0
 27
1.0
 37
0.0
 76
     0
330
1F
  0
MLINESTYLE
  5
18
102
{ACAD_REACTORS
330
17
102
}
330
17
100
AcDbMlineStyle
  2
Standard
 70
     0
  3

 62
   256
 51
90.0
 52
90.0
 71
     2
 49
0.5
 62
   256
  6
BYLAYER
 49
-0.5
 62
   256
  6
BYLAYER
  0
ACDBPLACEHOLDER
  5
F
102
{ACAD_REACTORS
330
E
102
}
330
E
  0
DICTIONARYVAR
  5
465
102
{ACAD_REACTORS
330
464
102
}
330
464
100
DictionaryVariables
280
     0
  1
1
  0
ENDSEC
  0
EOF
